<?xml version="1.0" standalone="no"?>
<!DOCTYPE svg PUBLIC "-//W3C//DTD SVG 1.1//EN" "http://www.w3.org/Graphics/SVG/1.1/DTD/svg11.dtd" >
<svg xmlns="http://www.w3.org/2000/svg">
<metadata>Generated by IcoMoon</metadata>
<defs>
<font id="millsta-icons" horiz-adv-x="1024">
<font-face units-per-em="1024" ascent="960" descent="-64" />
<missing-glyph horiz-adv-x="1024" />
<glyph unicode="&#x20;" horiz-adv-x="512" d="" />
<glyph unicode="&#xe900;" glyph-name="dashboard" d="M773.376 83.2h-522.752c-60.239 0.14-109.102 48.645-109.823 108.732l-0.001 0.068v512c0.579 60.212 49.525 108.8 109.819 108.8 0.002 0 0.003 0 0.005 0h173.568c20.218 0 36.608-16.39 36.608-36.608s-16.39-36.608-36.608-36.608h-173.568c-0.004 0-0.009 0-0.014 0-19.858 0-36.023-15.811-36.592-35.531l-0.001-0.053v-512c0-20.218 16.39-36.608 36.608-36.608v0h522.752c20.218 0 36.608 16.39 36.608 36.608v0 168.704c0 20.218 16.39 36.608 36.608 36.608s36.608-16.39 36.608-36.608v-168.704c-0.145-60.596-49.228-109.679-109.81-109.824h-0.014zM811.52 422.4h-251.648c-39.619 0.146-71.68 32.296-71.68 71.936 0 0 0 0 0 0.001v0 246.784c0 39.588 32.092 71.68 71.68 71.68h251.648c39.588 0 71.68-32.092 71.68-71.68v0-245.504c0.007-0.381 0.011-0.83 0.011-1.28 0-39.643-32.068-71.797-71.678-71.936h-0.013zM561.152 739.584v-243.968l250.368 1.28-1.536 244.224z" />
<glyph unicode="&#xe901;" glyph-name="alert" d="M270.080 299.008c4.817 10.029 9.271 21.938 12.687 34.279l0.369 1.561c3.252 11.249 5.123 24.171 5.123 37.529 0 0.306-0.001 0.612-0.003 0.918v-0.047 186.88c0.264 91.91 56.287 170.67 136.011 204.254l1.461 0.546c25.403 11.644 55.109 18.432 86.4 18.432s60.997-6.789 87.725-18.973l-1.325 0.541c27.813-11.814 51.591-27.877 71.713-47.649l-0.033 0.033c40.48-40.217 65.536-95.917 65.536-157.47 0-0.080 0-0.159 0-0.239v0.012-186.88c0.053-13.677 1.918-26.896 5.368-39.458l-0.248 1.058c3.785-13.902 8.239-25.811 13.631-37.189l-0.575 1.349zM884.48 299.008c-0.357-0.006-0.779-0.010-1.202-0.010-20.063 0-38.254 8.014-51.548 21.015l0.014-0.013c-13.466 12.953-21.875 31.081-22.016 51.174v186.906c0.005 0.647 0.008 1.411 0.008 2.176 0 40.88-8.672 79.735-24.276 114.825l0.715-1.801c-16.032 36.722-37.502 68.115-63.778 94.755l0.034-0.035c-53.647 55.436-128.725 89.85-211.841 89.85-41.467 0-80.933-8.566-116.726-24.024l1.911 0.734c-71.308-31.413-126.977-87.414-157.197-157.023l-0.755-1.953c-14.889-33.289-23.56-72.144-23.56-113.024 0-0.765 0.003-1.529 0.009-2.293l-0.001 0.117v-186.88c0-0.002 0-0.005 0-0.007 0-41.002-33.238-74.24-74.24-74.24-0.36 0-0.719 0.003-1.078 0.008l0.054-0.001c-0.23 0.005-0.501 0.008-0.773 0.008-9.643 0-18.397-3.809-24.839-10.004l0.012 0.011c-6.81-6.849-11.020-16.289-11.020-26.713 0-0.329 0.004-0.657 0.013-0.983l-0.001 0.048c-0.011-0.32-0.016-0.697-0.016-1.075 0-9.549 3.816-18.207 10.007-24.531l-0.006 0.006c6.647-6.339 15.668-10.24 25.6-10.24h747.008c0.589-0.036 1.278-0.056 1.971-0.056 17.986 0 32.786 13.638 34.624 31.137l0.013 0.151v4.608c0.028 0.542 0.044 1.177 0.044 1.815 0 9.888-3.813 18.885-10.050 25.601l0.022-0.024c-6.356 6.184-15.045 9.997-24.626 9.997-0.343 0-0.684-0.005-1.024-0.015l0.050 0.001zM595.2 145.408c-5.211 3.598-11.663 5.747-18.616 5.747-3.687 0-7.233-0.604-10.545-1.719l0.233 0.068c-10.009-3.463-18.167-10.129-23.442-18.751l-0.11-0.193c-4.689-8.728-12.983-15.002-22.836-16.864l-0.204-0.032c-3.75-0.934-8.054-1.47-12.484-1.47-6.35 0-12.444 1.101-18.099 3.123l0.375-0.117c-3.253 1.662-6.039 3.713-8.446 6.142l-0.002 0.002c-2.304 2.816-4.352 5.632-6.4 8.704-4.614 8.751-12.802 15.090-22.57 17.115l-0.214 0.037c-3.126 0.679-6.718 1.067-10.4 1.067-6.569 0-12.849-1.237-18.62-3.491l0.348 0.12c-8.745-5.102-15.141-13.42-17.609-23.294l-0.055-0.258c-0.762-3.137-1.199-6.739-1.199-10.443 0-6.589 1.383-12.856 3.875-18.525l-0.116 0.296c4.852-8.802 10.55-16.377 17.16-23.048l-0.008 0.008c6.757-6.714 14.311-12.639 22.504-17.618l0.536-0.302c8.030-4.778 17.311-8.72 27.131-11.344l0.773-0.176c8.248-2.111 17.717-3.323 27.469-3.323 20.043 0 38.89 5.119 55.306 14.12l-0.599-0.301c18.016 9.911 32.544 24.193 42.472 41.455l0.28 0.529c6.737 5.535 11.001 13.867 11.001 23.195 0 1.937-0.184 3.831-0.535 5.665l0.030-0.188c-2.433 10.107-8.746 18.426-17.236 23.458l-0.172 0.094z" />
<glyph unicode="&#xe902;" glyph-name="user" d="M512 714.496c0.384 0.005 0.838 0.008 1.292 0.008 54.037 0 97.944-43.375 98.803-97.208l0.001-0.081v-2.56c0.003-0.307 0.005-0.669 0.005-1.032 0-54.126-43.518-98.089-97.474-98.807l-0.068-0.001h-2.56c-0.383-0.005-0.835-0.008-1.288-0.008-53.986 0-97.834 43.405-98.551 97.221l-0.001 0.068c-0.122 0.383-0.192 0.823-0.192 1.28s0.070 0.897 0.201 1.311l-0.008-0.031c-0.005 0.383-0.008 0.835-0.008 1.288 0 53.986 43.405 97.834 97.221 98.551l0.068 0.001h2.56zM512 448c0.12 0 0.262 0 0.404 0 23.462 0 45.849 4.608 66.303 12.968l-1.171-0.423c39.941 17.207 71.078 48.51 87.656 87.496l0.408 1.080c7.939 18.883 12.552 40.831 12.552 63.857 0 0.59-0.003 1.18-0.009 1.769l0.001-0.090c0.003 0.397 0.005 0.866 0.005 1.336 0 23.143-4.611 45.209-12.965 65.33l0.416-1.13c-17.137 39.829-48.235 70.927-86.99 87.651l-1.074 0.413c-19.422 7.856-41.947 12.414-65.536 12.414s-46.114-4.558-66.742-12.841l1.206 0.428c-39.754-17.251-70.813-48.309-87.646-86.986l-0.418-1.078c-7.773-19.433-12.282-41.958-12.282-65.536s4.508-46.103 12.71-66.76l-0.429 1.224c17.235-39.913 48.407-71.084 87.241-87.904l1.079-0.416c19.308-8.079 41.742-12.781 65.272-12.8h0.008zM645.376 380.928h-266.752c-0.496 0.005-1.083 0.008-1.67 0.008-22.766 0-44.453-4.614-64.179-12.959l1.082 0.406c-20.53-8.879-38.092-20.78-53.026-35.361l0.034 0.033c-14.905-14.603-26.866-32.149-34.95-51.704l-0.378-1.032c-8.259-18.683-13.067-40.472-13.067-63.383 0-0.667 0.004-1.333 0.012-1.998l-0.001 0.101v-66.304c-0.097-0.939-0.152-2.029-0.152-3.132 0-8.739 3.476-16.667 9.12-22.476l-0.007 0.008c5.91-5.624 13.925-9.083 22.747-9.083 1.004 0 1.998 0.045 2.98 0.133l-0.127-0.009c0.466-0.024 1.012-0.038 1.561-0.038 8.649 0 16.496 3.431 22.255 9.006l-0.009-0.008c5.62 5.946 9.075 13.989 9.075 22.84 0 0.972-0.042 1.933-0.123 2.884l0.009-0.124v66.304c-0.005 0.383-0.008 0.835-0.008 1.288 0 53.986 43.405 97.834 97.221 98.551l0.068 0.001h268.288c0.383 0.005 0.835 0.008 1.288 0.008 53.986 0 97.834-43.405 98.551-97.221l0.001-0.068v-68.864c-0.073-0.827-0.115-1.789-0.115-2.76 0-8.85 3.455-16.894 9.089-22.856l-0.015 0.016c5.789-5.573 13.672-9.005 22.357-9.005 0.6 0 1.197 0.016 1.789 0.049l-0.082-0.004c0.732-0.061 1.585-0.096 2.446-0.096 16.201 0 29.521 12.336 31.080 28.127l0.010 0.129v72.704c0.001 0.188 0.001 0.41 0.001 0.632 0 23.455-4.898 45.765-13.727 65.965l0.413-1.061c-8.471 20.545-20.336 38.076-35.065 52.729l-0.007 0.007c-15.016 14.485-32.651 26.378-52.106 34.883l-1.142 0.445c-18.644 7.938-40.332 12.552-63.098 12.552-0.587 0-1.174-0.003-1.759-0.009l0.089 0.001z" />
<glyph unicode="&#xe903;" glyph-name="yen" d="M624.128 627.2l-112.128-110.592-112.128 110.592c-6.224 6.224-14.822 10.074-24.32 10.074-18.995 0-34.394-15.399-34.394-34.394 0-9.498 3.85-18.096 10.074-24.32v0l124.416-124.16h-55.808c-17.415-1.945-30.832-16.585-30.832-34.358 0-18.406 14.388-33.451 32.531-34.501l0.093-0.004h55.808v-23.296h-55.808c-17.765-1.579-31.588-16.391-31.588-34.432s13.823-32.853 31.456-34.423l0.132-0.009h55.808v-57.856c1.579-17.765 16.391-31.588 34.432-31.588s32.853 13.823 34.423 31.456l0.009 0.132v58.88h58.368c17.765 1.579 31.588 16.391 31.588 34.432s-13.823 32.853-31.456 34.423l-0.132 0.009h-58.368v23.296h60.16c0.579-0.035 1.255-0.054 1.936-0.054 19.087 0 34.56 15.473 34.56 34.56s-15.473 34.56-34.56 34.56c-1.313 0-2.61-0.073-3.885-0.216l0.157 0.014h-56.32l124.416 124.16c6.224 6.224 10.074 14.822 10.074 24.32 0 18.995-15.399 34.394-34.394 34.394-9.498 0-18.096-3.85-24.32-10.074v0zM512 832c-212.077 0-384-171.923-384-384s171.923-384 384-384c212.077 0 384 171.923 384 384v0c0 212.077-171.923 384-384 384v0zM512 132.864c-174.045 0-315.136 141.091-315.136 315.136s141.091 315.136 315.136 315.136c174.045 0 315.136-141.091 315.136-315.136v0c0-174.045-141.091-315.136-315.136-315.136v0z" />
<glyph unicode="&#xe904;" glyph-name="lock" d="M790.784 168.704c0.055-0.703 0.086-1.523 0.086-2.349 0-17.073-13.371-31.023-30.212-31.951l-0.082-0.004h-493.056c-0.703-0.055-1.523-0.086-2.349-0.086-17.073 0-31.023 13.371-31.951 30.212l-0.004 0.082c-0.122 0.616-0.192 1.324-0.192 2.048s0.070 1.432 0.203 2.117l-0.011-0.069v244.48c-0.032 0.543-0.050 1.179-0.050 1.819 0 18.239 14.785 33.024 33.024 33.024 0.468 0 0.933-0.010 1.396-0.029l-0.066 0.002h489.216c0.534 0.031 1.158 0.048 1.786 0.048 9.331 0 17.764-3.84 23.807-10.026l0.006-0.006c5.887-6.33 9.499-14.845 9.499-24.204 0-0.491-0.010-0.98-0.030-1.466l0.002 0.070zM372.224 622.592c-0.010 0.601-0.015 1.311-0.015 2.022 0 37.93 15.803 72.169 41.184 96.493l0.048 0.045c25.065 25.565 59.96 41.412 98.556 41.412 37.835 0 72.113-15.227 97.040-39.888l1.524-1.524c25.428-24.369 41.231-58.608 41.231-96.538 0-0.711-0.006-1.42-0.017-2.129l0.001 0.107v-104.704h-279.552zM756.224 517.888h-34.816v104.704c0.007 0.644 0.012 1.406 0.012 2.168 0 28.649-6.033 55.889-16.899 80.518l0.503-1.278c-32.557 75.962-106.689 128.208-193.024 128.208s-160.467-52.246-192.504-126.846l-0.52-1.362c-10.36-23.299-16.392-50.482-16.392-79.073 0-0.641 0.003-1.281 0.009-1.921l-0.001 0.098v-104.704h-35.072c-0.694 0.017-1.511 0.027-2.331 0.027-56.554 0-102.4-45.846-102.4-102.4 0-0.819 0.010-1.637 0.029-2.452l-0.002 0.121v-244.48c-0.025-0.847-0.039-1.843-0.039-2.843 0-56.554 45.846-102.4 102.4-102.4 0.824 0 1.646 0.010 2.465 0.029l-0.122-0.002h489.216c0.686-0.017 1.494-0.026 2.304-0.026 56.554 0 102.4 45.846 102.4 102.4 0 0.009 0 0.018 0 0.027v-0.001 246.784c0.017 0.686 0.026 1.494 0.026 2.304 0 56.554-45.846 102.4-102.4 102.4-0.009 0-0.018 0-0.027 0h-2.559z" />
<glyph unicode="&#xe905;" glyph-name="logout" d="M911.616 472.32l-135.424 135.168c-6.102 6.281-14.628 10.178-24.064 10.178s-17.962-3.897-24.056-10.17l-0.008-0.008c-6.155-6.16-9.961-14.668-9.961-24.064s3.806-17.904 9.961-24.064v0l76.8-76.8h-295.68c-0.887 0.082-1.918 0.128-2.961 0.128-18.946 0-34.304-15.358-34.304-34.304s15.358-34.304 34.304-34.304c1.042 0 2.074 0.046 3.092 0.137l-0.132-0.009h295.936l-76.8-76.8c-6.095-6.188-9.858-14.688-9.858-24.066 0-18.811 15.142-34.086 33.902-34.302h0.020c9.399 0.007 17.907 3.821 24.064 9.984v0l135.424 135.424c5.942 6.16 9.604 14.555 9.604 23.805 0 9.379-3.764 17.879-9.864 24.072l0.004-0.004zM293.12 99.584v0 0 0zM627.2 318.464c-18.804 0-34.048-15.244-34.048-34.048v0-59.648c-0.050-10.368-7.797-18.912-17.817-20.213l-0.103-0.011-277.76-36.096h-3.84c-11.311 0-20.48 9.169-20.48 20.48v518.656c0.149 6.545 3.425 12.294 8.387 15.831l0.061 0.041c3.694 2.9 8.409 4.651 13.534 4.651 2.108 0 4.147-0.296 6.077-0.849l-0.155 0.038 276.48-32.768c9.524-1.969 16.589-10.264 16.64-20.218v-61.958c0-18.804 15.244-34.048 34.048-34.048s34.048 15.244 34.048 34.048v0 61.952c-0.256 43.797-31.986 80.108-73.702 87.473l-0.538 0.079-277.504 32.768c-4.958 1.14-10.652 1.793-16.498 1.793-0.14 0-0.28 0-0.419-0.001h0.022c-49.061 0-88.832-39.771-88.832-88.832v0-518.912c0-0.001 0-0.002 0-0.003 0-48.932 39.449-88.65 88.279-89.084h0.041c5.438 0.004 10.744 0.563 15.866 1.624l-0.506-0.088 275.712 35.584c43.519 6.345 76.596 43.311 76.8 88.043v59.669c0 0 0 0.001 0 0.001 0 18.714-15.098 33.902-33.778 34.047h-0.014z" />
<glyph unicode="&#xe906;" glyph-name="more" d="M342.016 448c-0.061-14.114-5.824-26.87-15.102-36.094l-0.002-0.002c-2.228-2.444-4.752-4.56-7.53-6.312l-0.15-0.088c-2.514-1.851-5.38-3.482-8.429-4.762l-0.275-0.102c-2.717-1.081-5.975-2.052-9.333-2.748l-0.395-0.068c-1.498-0.181-3.233-0.284-4.992-0.284s-3.494 0.103-5.199 0.304l0.207-0.020c-13.515 0.123-25.76 5.463-34.837 14.1l0.021-0.020c-2.444 2.228-4.56 4.752-6.312 7.53l-0.088 0.15c-1.848 2.585-3.481 5.536-4.759 8.669l-0.105 0.291c-1.228 2.732-2.207 5.912-2.781 9.231l-0.035 0.241c-0.625 3.002-0.983 6.451-0.983 9.984s0.358 6.982 1.039 10.314l-0.056-0.33c0.609 3.656 1.589 6.924 2.922 10.003l-0.106-0.275c1.382 3.324 3.013 6.19 4.945 8.82l-0.081-0.116c1.844 3.022 3.962 5.629 6.382 7.92l0.018 0.016c8.962 8.898 21.203 14.504 34.751 14.847l0.065 0.001c1.498 0.181 3.233 0.284 4.992 0.284s3.494-0.103 5.199-0.304l-0.207 0.020c3.656-0.609 6.924-1.589 10.003-2.922l-0.275 0.106c3.361-1.432 6.22-2.974 8.92-4.741l-0.216 0.133c2.853-2.032 5.36-4.133 7.692-6.412l-0.012 0.012c9.336-9.277 15.115-22.125 15.115-36.322 0-0.371-0.004-0.74-0.012-1.109l0.001 0.055zM563.2 448c0-28.277-22.923-51.2-51.2-51.2v0c-14.114 0.061-26.87 5.824-36.094 15.102l-0.002 0.002c-9.201 9.255-14.889 22.011-14.889 36.096s5.687 26.842 14.891 36.098l-0.002-0.002c9.214 8.975 21.816 14.511 35.712 14.511s26.498-5.535 35.723-14.522l-0.011 0.011c4.745-4.52 8.555-9.972 11.145-16.069l0.119-0.315c2.707-5.778 4.381-12.522 4.606-19.632l0.002-0.080zM784.384 448c0-0.012 0-0.026 0-0.041 0-14.065-5.671-26.805-14.851-36.058l0.003 0.003c-9.276-9.33-22.119-15.104-36.311-15.104-0.014 0-0.029 0-0.043 0h0.002c-28.277 0-51.2 22.923-51.2 51.2v0c-0.126 1.419-0.199 3.069-0.199 4.736s0.072 3.317 0.213 4.948l-0.015-0.212c0.862 3.768 1.918 7.016 3.223 10.133l-0.151-0.405c1.432 3.361 2.974 6.22 4.741 8.92l-0.133-0.216c1.932 2.885 4.040 5.399 6.387 7.667l0.013 0.013c9.241 9.125 21.946 14.762 35.968 14.762s26.727-5.636 35.973-14.767l-0.005 0.005c2.36-2.281 4.468-4.795 6.295-7.514l0.105-0.166c1.634-2.484 3.176-5.343 4.467-8.337l0.141-0.367c1.228-2.732 2.207-5.912 2.781-9.231l0.035-0.241c0.181-1.536 0.284-3.316 0.284-5.12s-0.103-3.584-0.304-5.334l0.020 0.214z" />
<glyph unicode="&#xe907;" glyph-name="right" d="M653.824 475.392l-230.4 230.4c-6.973 6.67-16.447 10.776-26.88 10.776s-19.907-4.106-26.894-10.79l0.014 0.014c-6.893-6.745-11.167-16.143-11.167-26.54 0-9.483 3.556-18.136 9.408-24.697l-0.032 0.037 1.792-1.536 203.52-205.056-203.008-203.008c-7.009-6.681-11.367-16.089-11.367-26.515 0-9.525 3.638-18.201 9.6-24.713l-0.025 0.028c0.538-0.666 1.126-1.253 1.77-1.775l0.022-0.017c3.383-3.609 7.363-6.607 11.791-8.849l0.241-0.111c3.988-1.636 8.616-2.586 13.466-2.586 0.486 0 0.97 0.010 1.451 0.028l-0.069-0.002c0.372-0.013 0.809-0.021 1.248-0.021 4.896 0 9.57 0.948 13.849 2.67l-0.25-0.089c4.608 2.504 8.567 5.484 12.031 8.959l230.401 230.401c6.893 6.745 11.167 16.143 11.167 26.54 0 9.483-3.556 18.136-9.408 24.697l0.032-0.037c-0.538 0.666-1.126 1.253-1.77 1.775l-0.022 0.017z" />
<glyph unicode="&#xe908;" glyph-name="left" d="M370.176 475.392l230.4 230.4c6.973 6.67 16.447 10.776 26.88 10.776s19.907-4.106 26.894-10.79l-0.014 0.014c6.893-6.745 11.167-16.143 11.167-26.54 0-9.483-3.556-18.136-9.408-24.697l0.032 0.037-1.792-1.536-203.52-205.056 203.008-203.008c6.893-6.745 11.167-16.143 11.167-26.54 0-9.483-3.556-18.136-9.408-24.697l0.032 0.037c-0.538-0.666-1.126-1.253-1.77-1.775l-0.022-0.017c-6.601-7.476-16.207-12.167-26.909-12.167-5.371 0-10.467 1.182-15.041 3.299l0.222-0.092c-4.669 2.353-8.649 5.351-12.011 8.937l-0.021 0.023-230.4 230.4c-7.009 6.681-11.367 16.089-11.367 26.515 0 9.525 3.638 18.201 9.6 24.713l-0.025-0.028c0.468 0.725 1.067 1.324 1.769 1.778l0.023 0.014z" />
<glyph unicode="&#xe909;" glyph-name="up" d="M484.608 589.824l-230.4-230.4c-6.67-6.973-10.776-16.447-10.776-26.88s4.106-19.907 10.79-26.894l-0.014 0.014c6.745-6.893 16.143-11.167 26.54-11.167 9.483 0 18.136 3.556 24.697 9.408l-0.037-0.032 1.536 1.792 205.056 203.52 203.008-203.008c6.681-7.009 16.089-11.367 26.515-11.367 9.525 0 18.201 3.638 24.713 9.6l-0.028-0.025c0.666 0.538 1.253 1.126 1.775 1.77l0.017 0.022c3.609 3.383 6.607 7.363 8.849 11.791l0.111 0.241c1.636 3.988 2.586 8.616 2.586 13.466 0 0.486-0.010 0.97-0.028 1.451l0.002-0.069c0.013 0.372 0.021 0.809 0.021 1.248 0 4.896-0.948 9.57-2.67 13.849l0.089-0.25c-2.504 4.608-5.484 8.567-8.959 12.031l-230.401 230.401c-6.745 6.893-16.143 11.167-26.54 11.167-9.483 0-18.136-3.556-24.697-9.408l0.037 0.032c-0.666-0.538-1.253-1.126-1.775-1.77l-0.017-0.022z" />
<glyph unicode="&#xe90a;" glyph-name="down" d="M484.608 306.176l-230.4 230.4c-6.67 6.973-10.776 16.447-10.776 26.88s4.106 19.907 10.79 26.894l-0.014-0.014c6.745 6.893 16.143 11.167 26.54 11.167 9.483 0 18.136-3.556 24.697-9.408l-0.037 0.032 1.536-1.792 205.056-203.52 203.008 203.008c6.745 6.893 16.143 11.167 26.54 11.167 9.483 0 18.136-3.556 24.697-9.408l-0.037 0.032c0.666-0.538 1.253-1.126 1.775-1.77l0.017-0.022c7.476-6.601 12.167-16.207 12.167-26.909 0-5.371-1.182-10.467-3.299-15.041l0.092 0.222c-2.353-4.669-5.351-8.649-8.937-12.011l-0.023-0.021-230.4-230.4c-6.681-7.009-16.089-11.367-26.515-11.367-9.525 0-18.201 3.638-24.713 9.6l0.028-0.025c-0.725 0.468-1.324 1.067-1.778 1.769l-0.014 0.023z" />
<glyph unicode="&#xe90b;" glyph-name="cross" d="M728.064 286.208l-161.792 161.792 161.792 161.792c6.923 6.955 11.203 16.546 11.203 27.136 0 21.245-17.222 38.467-38.467 38.467-10.654 0-20.297-4.331-27.263-11.329l-0.001-0.001-161.536-161.792-161.536 161.792c-6.741 5.864-15.608 9.438-25.31 9.438-21.349 0-38.656-17.307-38.656-38.656 0-9.702 3.574-18.57 9.478-25.357l-0.040 0.047 161.792-161.536-161.792-161.536c-6.999-6.967-11.331-16.61-11.331-27.264 0-21.245 17.222-38.467 38.467-38.467 10.59 0 20.181 4.28 27.137 11.204l161.791 161.791 161.536-161.792c6.967-6.999 16.61-11.331 27.264-11.331 21.245 0 38.467 17.222 38.467 38.467 0 10.59-4.28 20.181-11.204 27.137l0.001-0.001z" />
<glyph unicode="&#xe90c;" glyph-name="plus" d="M779.008 486.4h-228.608v228.608c0 21.208-17.192 38.4-38.4 38.4s-38.4-17.192-38.4-38.4v0-228.608h-228.608c-21.208 0-38.4-17.192-38.4-38.4s17.192-38.4 38.4-38.4v0h228.608v-228.608c0-21.208 17.192-38.4 38.4-38.4s38.4 17.192 38.4 38.4v0 228.608h228.608c21.208 0 38.4 17.192 38.4 38.4s-17.192 38.4-38.4 38.4v0z" />
<glyph unicode="&#xe90d;" glyph-name="update" d="M847.872 508.672v183.808c0.073 0.827 0.115 1.789 0.115 2.76 0 8.85-3.455 16.894-9.089 22.856l0.015-0.016c-5.809 5.912-13.854 9.611-22.762 9.728h-3.094c-0.007 0-0.016 0-0.024 0-8.944 0-17.016-3.729-22.749-9.717l-0.011-0.011c-5.613-6.017-9.058-14.118-9.058-23.025 0-0.906 0.036-1.804 0.106-2.693l-0.007 0.117v-105.984l-82.688 80.896c-15.323 15.543-32.065 29.603-50.043 41.998l-1.157 0.754c-17.695 12.259-37.989 22.804-59.582 30.643l-1.858 0.589c-29.441 10.797-63.435 17.042-98.888 17.042-8.174 0-16.27-0.332-24.276-0.983l1.052 0.069c-83.229-5.481-156.554-43.835-207.84-102.067l-0.288-0.333c-26.828-29.57-47.894-64.916-61.082-103.893l-0.614-2.091c-10.989-29.998-17.344-64.633-17.344-100.754 0-7.245 0.256-14.431 0.759-21.548l-0.054 0.957c2.937-42.067 13.485-80.998 30.277-116.392l-0.837 1.96c17.549-37.265 40.685-68.998 68.726-95.614l0.138-0.13c29.176-27.527 63.921-49.514 102.325-64.062l2.123-0.706c16.384-4.352 33.28-7.936 51.2-10.752 14.903-2.772 32.051-4.357 49.568-4.357 0.574 0 1.147 0.002 1.72 0.005h-0.089c65.592 0.155 126.253 21.138 175.754 56.682l-0.906-0.618c25.72 18.732 47.89 40.171 66.782 64.3l0.546 0.724c18.243 24.833 32.986 53.659 42.704 84.708l0.56 2.076c1.66 3.774 2.626 8.174 2.626 12.8s-0.966 9.026-2.707 13.009l0.082-0.209c-3.673 8.153-10.289 14.436-18.46 17.587l-0.228 0.077c-3.734 1.883-8.138 2.986-12.8 2.986s-9.066-1.103-12.967-3.062l0.167 0.076c-8.214-3.705-14.518-10.426-17.59-18.715l-0.074-0.229c-31.743-89.94-113.163-154.478-210.472-160.985l-0.728-0.039c-4.949-0.379-10.719-0.594-16.539-0.594-27.758 0-54.369 4.909-79.014 13.905l1.601-0.511c-31.83 10.749-59.279 26.807-82.708 47.341l0.276-0.237c-21.981 20.784-40.104 45.373-53.367 72.754l-0.649 1.486c-12.505 26.169-20.837 56.632-23.245 88.747l-0.051 0.853c-0.378 5.039-0.594 10.915-0.594 16.841 0 28.272 4.907 55.397 13.915 80.572l-0.521-1.669c33.011 89.372 115.024 153.039 212.6 158.69l0.648 0.030c4.98 0.401 10.783 0.629 16.638 0.629 27.966 0 54.716-5.208 79.332-14.708l-1.506 0.511c18.814-7.088 34.841-14.926 50.002-24.057l-1.362 0.761c15.84-9.532 29.416-20.826 41.065-33.876l0.151-0.172 79.36-74.24h-98.304c-0.424 0.020-0.921 0.032-1.421 0.032-8.993 0-17.113-3.74-22.889-9.749l-0.010-0.010c-5.568-6.113-8.977-14.276-8.977-23.236 0-0.381 0.006-0.761 0.018-1.139l-0.001 0.055c-0.037-0.605-0.058-1.312-0.058-2.023 0-9.076 3.422-17.352 9.047-23.609l-0.029 0.032c5.828-5.841 13.882-9.458 22.781-9.472h179.203c0.34-0.010 0.74-0.015 1.142-0.015 5.966 0 11.646 1.23 16.798 3.449l-0.276-0.106c4.010 1.941 7.41 4.522 10.213 7.649l0.027 0.031c2.801 3.019 5.057 6.59 6.579 10.527l0.077 0.225c1.942 3.934 3.078 8.565 3.078 13.462 0 0.217-0.002 0.434-0.007 0.65l0.001-0.032z" />
<glyph unicode="&#xe90e;" glyph-name="search" d="M820.992 194.048l-140.032 139.776c34.656 46.652 55.497 105.367 55.552 168.947v0.013c0.003 0.498 0.005 1.087 0.005 1.677 0 38.566-8.2 75.216-22.951 108.303l0.674-1.692c-14.568 34.369-34.624 63.699-59.379 88.307l-0.013 0.013c-24.958 24.637-54.397 44.809-86.972 59.172l-1.86 0.732c-32.001 13.6-69.221 21.505-108.288 21.505s-76.287-7.905-110.149-22.203l1.861 0.698c-34.32-15.167-63.664-35.328-88.609-59.936l0.033 0.032c-24.773-24.536-44.828-53.783-58.719-86.293l-0.673-1.771c-14.080-32.046-22.275-69.402-22.275-108.672s8.195-76.626 22.967-110.451l-0.692 1.779c14.632-34.345 34.679-63.665 59.386-88.314l0.006-0.006c24.958-24.637 54.397-44.809 86.972-59.172l1.86-0.732c31.439-13.6 68.048-21.51 106.505-21.51 0.627 0 1.253 0.002 1.879 0.006l-0.096-0.001c0.347-0.002 0.758-0.003 1.168-0.003 32.923 0 64.465 5.913 93.621 16.736l-1.861-0.605c29.321 10.815 54.673 24.196 77.903 40.409l-1.103-0.729 140.288-139.264c3.967-3.717 8.635-6.743 13.778-8.85l0.302-0.11c3.795-1.519 8.195-2.4 12.8-2.4s9.005 0.881 13.039 2.484l-0.239-0.084c14.98 5.283 25.522 19.317 25.522 35.813 0 4.315-0.721 8.461-2.050 12.325l0.080-0.266c-1.942 6.049-5.204 11.21-9.463 15.352l-0.009 0.008zM659.2 503.040c0.008-0.65 0.012-1.417 0.012-2.186 0-55.208-22.52-105.156-58.876-141.159l-0.016-0.016c-17.914-17.979-39.14-32.644-62.687-43.005l-1.313-0.515c-22.935-9.875-49.633-15.617-77.672-15.617-0.233 0-0.467 0-0.7 0.001h0.036c-0.148 0-0.324-0.001-0.5-0.001-28.231 0-55.076 5.935-79.356 16.625l1.263-0.496c-73.050 30.774-123.398 101.775-123.398 184.535 0 0.554 0.002 1.108 0.007 1.662l-0.001-0.085c-0.002 0.338-0.003 0.737-0.003 1.137 0 27.831 5.551 54.365 15.607 78.555l-0.5-1.356c11 24.816 25.648 46.022 43.53 64.010l-0.010-0.010c36.485 36.385 86.836 58.882 142.44 58.882 0.323 0 0.647-0.001 0.97-0.002h-0.050c0.402 0.003 0.877 0.005 1.353 0.005 27.853 0 54.318-5.939 78.2-16.619l-1.216 0.486c25.080-10.199 46.462-24.68 64.232-42.728l0.024-0.024c17.882-17.924 32.463-39.15 42.75-62.682l0.514-1.318c9.716-22.833 15.364-49.392 15.364-77.27 0-0.465-0.002-0.929-0.005-1.393v0.071z" />
<glyph unicode="&#xe90f;" glyph-name="setting" d="M739.328 270.592c2.709-3.055 5.092-6.5 7.034-10.214l0.134-0.282c1.585-3.542 2.524-7.673 2.56-12.019v-0.013c0.001-0.091 0.001-0.199 0.001-0.307 0-4.514-0.942-8.809-2.641-12.697l0.080 0.204c-3.912-7.213-9.683-12.984-16.679-16.788l-0.217-0.108c-3.684-1.619-7.978-2.561-12.493-2.561-0.108 0-0.216 0.001-0.324 0.002h0.016c-0.076-0.001-0.166-0.001-0.256-0.001-4.585 0-8.904 1.137-12.691 3.144l0.147-0.071c-4.823 2.98-9.011 6.19-12.847 9.771l0.047-0.043c-11.537 12.137-26.714 20.715-43.777 23.982l-0.511 0.082c-4.012 0.743-8.628 1.168-13.343 1.168-12.895 0-25.048-3.178-35.717-8.793l0.42 0.202c-15.895-6.307-28.826-17.256-37.443-31.16l-0.189-0.328c-8.326-12.985-13.283-28.822-13.312-45.816v-5.896c0.020-0.421 0.031-0.915 0.031-1.412 0-8.741-3.533-16.657-9.249-22.397l0.001 0.001c-5.504-5.263-12.981-8.502-21.215-8.502-0.642 0-1.279 0.020-1.911 0.058l0.087-0.004c-0.574-0.039-1.245-0.061-1.921-0.061-8.204 0-15.651 3.243-21.129 8.518l0.010-0.009c-5.272 5.759-8.503 13.463-8.503 21.922 0 0.663 0.020 1.322 0.059 1.976l-0.004-0.090v2.816c0 0.077 0 0.167 0 0.258 0 17.543-5.767 33.739-15.508 46.797l0.148-0.207c-9.943 13.316-23.32 23.56-38.827 29.495l-0.597 0.201c-4.645 3.389-10.34 5.613-16.519 6.136l-0.121 0.008h-18.688c-11.748-0.006-22.923-2.454-33.047-6.864l0.535 0.208c-10.968-4.515-20.328-10.837-28.158-18.686l-0.002-0.002c-5.562-6.281-13.646-10.22-22.649-10.22-7.030 0-13.5 2.402-18.632 6.429l0.066-0.050-6.912 13.312h-3.072c-1.514 1.61-2.472 3.757-2.559 6.127l-0.001 0.017c-0.060 0.995-0.095 2.157-0.095 3.328s0.034 2.333 0.102 3.487l-0.007-0.159c-0.001 0.094-0.002 0.205-0.002 0.316 0 4.424 0.943 8.628 2.639 12.421l-0.077-0.193c2.799 5.038 6.208 9.344 10.204 13.023l0.036 0.033c11.718 11.423 20.009 26.312 23.214 43.008l0.082 0.512c0.702 3.901 1.104 8.391 1.104 12.974 0 13.041-3.25 25.323-8.985 36.079l0.201-0.414c-6.376 15.87-17.198 28.837-30.919 37.699l-0.313 0.189c-12.813 8.915-28.687 14.268-45.807 14.336h-6.417c-0.554-0.033-1.202-0.053-1.855-0.053-8.218 0-15.729 3.025-21.481 8.023l0.040-0.034c-5.554 5.558-8.989 13.235-8.989 21.713 0 0.467 0.010 0.931 0.031 1.392l-0.002-0.066c-0.049 0.641-0.077 1.389-0.077 2.143 0 16.542 13.41 29.952 29.952 29.952 0.838 0 1.668-0.034 2.488-0.102l-0.108 0.007h3.072c0.027 0 0.059 0 0.090 0 17.598 0 33.85 5.765 46.969 15.51l-0.211-0.15c13.354 10.111 23.783 23.417 30.234 38.805l0.23 0.619c3.732 9.617 5.895 20.748 5.895 32.384 0 5.929-0.561 11.726-1.634 17.343l0.091-0.575c-3.602 18.337-12.115 34.28-24.102 46.888l0.038-0.040c-5.956 5.533-9.67 13.409-9.67 22.152 0 7.848 2.993 14.997 7.899 20.367l-0.021-0.023 1.792 1.792c5.48 5.85 13.253 9.495 21.877 9.495 0.409 0 0.816-0.008 1.221-0.024l-0.058 0.002c10.22-0.487 19.269-5.124 25.566-12.249l0.034-0.039c10.662-10.789 24.485-18.432 39.965-21.426l0.483-0.078c5.832-1.306 12.53-2.054 19.403-2.054 9.42 0 18.512 1.406 27.077 4.018l-0.657-0.172 9.728 3.84c15.709 6.385 28.514 17.21 37.186 30.911l0.19 0.321c8.502 12.682 13.568 28.288 13.568 45.078 0 0.082 0 0.165 0 0.247v-0.013 7.424c-0.018 0.396-0.029 0.86-0.029 1.327 0 8.479 3.435 16.155 8.989 21.713v0c5.611 5.25 13.175 8.475 21.491 8.475 0.455 0 0.907-0.010 1.357-0.029l-0.064 0.002c0.499 0.029 1.084 0.046 1.672 0.046 8.454 0 16.103-3.443 21.622-9.004l0.002-0.002c5.596-6.225 9.018-14.501 9.018-23.577 0-0.712-0.021-1.419-0.063-2.12l0.005 0.097c-0.012-0.512-0.018-1.114-0.018-1.719 0-33.947 20.977-62.995 50.675-74.889l0.543-0.192c9.71-4.052 20.991-6.405 32.821-6.405 5.776 0 11.42 0.561 16.883 1.631l-0.552-0.090c18.394 4.333 34.27 13.306 46.867 25.618l-0.019-0.018c2.723 2.746 5.949 4.988 9.529 6.577l0.199 0.079c3.284 1.486 7.121 2.353 11.161 2.353 0.577 0 1.149-0.018 1.717-0.052l-0.078 0.004c0.003 0 0.007 0 0.011 0 4.329 0 8.461-0.846 12.239-2.382l-0.218 0.078c4.051-1.669 7.528-3.914 10.519-6.677l-0.023 0.021c5.398-5.643 8.721-13.309 8.721-21.752 0-0.363-0.006-0.724-0.018-1.084l0.001 0.052c-0.649-10.233-5.351-19.255-12.504-25.565l-0.040-0.035c-14.332-15.54-23.121-36.383-23.121-59.279 0-9.837 1.622-19.296 4.614-28.122l-0.182 0.617 3.072-9.216c6.341-15.825 17.066-28.777 30.672-37.701l0.304-0.187c12.689-9.105 28.437-14.703 45.471-15.102l0.097-0.002h6.912c0.39 0.017 0.847 0.026 1.306 0.026 8.476 0 16.199-3.218 22.017-8.498l-0.027 0.024c5.654-6.098 9.123-14.292 9.123-23.296s-3.469-17.198-9.144-23.318l0.020 0.022c-6.35-5.44-14.664-8.751-23.751-8.751-0.65 0-1.297 0.017-1.939 0.050l0.090-0.004c-0.474 0.010-1.033 0.015-1.594 0.015-16.85 0-32.516-5.072-45.554-13.772l0.3 0.188c-13.671-9.015-24.214-21.786-30.274-36.843l-0.19-0.533c-5.011-9.373-7.954-20.501-7.954-32.317 0-5.978 0.753-11.781 2.17-17.317l-0.105 0.482c4.771-18.275 13.665-34.058 25.658-46.911l-0.058 0.063zM778.752 340.992c1.817 3.567 4.422 6.501 7.6 8.653l0.080 0.051c3.705 2.597 8.306 4.149 13.271 4.149 0.555 0 1.105-0.019 1.651-0.058l-0.073 0.004c0.633-0.015 1.378-0.024 2.126-0.024 25.86 0 49.273 10.476 66.227 27.417l-0.001-0.001c16.356 16.622 26.454 39.443 26.454 64.624 0 1.401-0.031 2.795-0.093 4.181l0.007-0.197c0.008 0.458 0.013 0.999 0.013 1.541 0 51.815-41.718 93.887-93.398 94.458h-9.014c-0.089-0.002-0.195-0.003-0.301-0.003-3.187 0-6.173 0.856-8.742 2.351l0.083-0.045c-3.020 1.503-5.409 3.892-6.872 6.825l-0.040 0.087-3.072 6.656c-1.093 2.54-1.728 5.497-1.728 8.602 0 1.029 0.070 2.042 0.205 3.034l-0.013-0.115c0.987 5.534 3.745 10.3 7.657 13.804l0.023 0.020c16.626 15.459 27.499 36.91 29.168 60.896l0.016 0.288c0.133 1.885 0.209 4.084 0.209 6.302 0 21.906-7.397 42.085-19.828 58.175l0.164-0.22v8.96l-12.8 6.656c-7.878 7.912-17.334 14.245-27.857 18.489l-0.559 0.199c-10.431 4.372-22.554 6.912-35.27 6.912-0.021 0-0.041 0-0.062 0h0.003c-13.643-0.057-26.657-2.683-38.605-7.419l0.717 0.251c-12.714-5.039-23.547-12.337-32.495-21.487l-0.017-0.017c-2.762-3.225-6.741-5.34-11.216-5.63l-0.048-0.002c-0.577-0.055-1.247-0.086-1.924-0.086-3.397 0-6.61 0.788-9.467 2.19l0.127-0.056c-3.072-1.536-5.888 0-8.704 3.328-2.562 3.552-4.098 7.993-4.098 12.792 0 0.093 0.001 0.186 0.002 0.278v-0.014c0.008 0.462 0.013 1.007 0.013 1.553 0 52.171-42.293 94.464-94.464 94.464-0.635 0-1.268-0.006-1.899-0.019l0.095 0.001c-0.788 0.024-1.714 0.038-2.644 0.038-25.699 0-48.949-10.49-65.7-27.422l-0.008-0.008c-17.089-16.939-27.669-40.42-27.669-66.372 0-0.696 0.008-1.391 0.023-2.083l-0.002 0.103v-6.656c-0.005-3.287-0.859-6.374-2.353-9.055l0.049 0.095c-1.553-3.144-4.15-5.576-7.33-6.878l-0.094-0.034-6.144-2.816c-1.721-0.848-3.747-1.344-5.888-1.344s-4.167 0.496-5.968 1.38l0.080-0.035c-5.172 1.67-9.669 3.93-13.735 6.766l0.167-0.11c-17.106 16.934-40.646 27.397-66.629 27.397-0.336 0-0.671-0.002-1.006-0.005h0.051c-0.589 0.014-1.282 0.022-1.977 0.022-25.537 0-48.52-10.933-64.525-28.374l-0.058-0.064c-17.391-16.945-28.178-40.595-28.178-66.765 0-0.648 0.007-1.295 0.020-1.94l-0.002 0.096c0-0.079 0-0.172 0-0.265 0-27.195 11.945-51.601 30.875-68.256l0.101-0.087c2.863-3.196 4.675-7.386 4.863-11.994l0.001-0.038c0.053-0.74 0.083-1.603 0.083-2.473 0-4.152-0.686-8.143-1.952-11.867l0.077 0.26c-2.052-3.689-5.015-6.652-8.592-8.647l-0.112-0.057c-3.905-2.556-8.685-4.082-13.82-4.096h-0.004c-0.509 0.010-1.11 0.015-1.712 0.015-25.989 0-49.533-10.467-66.648-27.415l0.008 0.008c-17.093-16.783-27.686-40.134-27.686-65.96 0-0.931 0.014-1.859 0.041-2.783l-0.003 0.136c-0.006-0.382-0.009-0.834-0.009-1.286 0-52.454 42.522-94.976 94.976-94.976 0.363 0 0.726 0.002 1.088 0.006h6.345c0.2 0.008 0.435 0.012 0.671 0.012 4.172 0 8.029-1.348 11.158-3.633l-0.054 0.037c3.003-2.394 5.423-5.387 7.101-8.809l0.067-0.151c1.019-2.268 1.613-4.916 1.613-7.703 0-1.259-0.121-2.49-0.353-3.682l0.020 0.121c-0.92-5.668-3.586-10.595-7.419-14.331l-0.005-0.005c-9.237-8.598-16.677-18.99-21.784-30.638l-0.232-0.594c-4.532-10.343-7.169-22.397-7.169-35.067 0-0.182 0.001-0.363 0.002-0.545v0.028c0.035-12.189 2.477-23.799 6.876-34.391l-0.22 0.599c5.014-11.755 11.288-21.888 18.843-30.911l-0.155 0.191 3.84-2.816 8.96-9.728c15.589-12.162 35.459-19.5 57.043-19.5 2.629 0 5.232 0.109 7.806 0.322l-0.337-0.023c24.94 2.145 47.057 12.776 63.772 28.955l-0.028-0.027c3.029 2.987 7.184 4.84 11.771 4.864h0.005c0.468 0.021 1.017 0.033 1.569 0.033 4.391 0 8.604-0.762 12.514-2.162l-0.259 0.081c4.425-0.897 8.081-3.629 10.201-7.35l0.039-0.074c1.659-3.774 2.625-8.173 2.625-12.798 0-0.721-0.023-1.437-0.070-2.147l0.005 0.097c-0.008-0.459-0.013-1.001-0.013-1.545 0-51.725 41.574-93.741 93.129-94.455l0.067-0.001h2.56c1.041-0.042 2.263-0.066 3.491-0.066 25.68 0 48.906 10.503 65.618 27.448l0.010 0.010c16.938 17.068 27.405 40.578 27.405 66.532 0 0.55-0.005 1.099-0.014 1.646l0.001-0.082v6.912c-0.014 0.263-0.023 0.572-0.023 0.882 0 4.268 1.559 8.171 4.138 11.173l-0.019-0.023c2.542 2.706 5.305 5.144 8.28 7.308l0.168 0.116c2.72 1.074 5.87 1.697 9.165 1.697 1.010 0 2.006-0.058 2.986-0.172l-0.119 0.011c5.566-1.122 10.281-4.165 13.529-8.395l0.039-0.053c17.284-17.342 41.172-28.093 67.571-28.16h0.013c0.457-0.008 0.996-0.013 1.536-0.013 25.672 0 48.794 10.922 64.972 28.372l0.052 0.057c17.391 16.985 28.176 40.668 28.176 66.871 0 0.611-0.006 1.221-0.018 1.829l0.001-0.091c-0.15 27.529-12.483 52.148-31.876 68.761l-0.124 0.103c-1.536 4.864-2.816 9.728-3.84 14.080-0.613 1.796-0.967 3.865-0.967 6.016s0.354 4.22 1.007 6.151l-0.040-0.135zM602.368 539.904c-23.069 22.625-54.704 36.59-89.6 36.59s-66.531-13.964-89.621-36.61l0.021 0.020c-23.088-23.151-37.364-55.1-37.364-90.383 0-34.512 13.659-65.834 35.865-88.855l-0.037 0.038 1.536-1.536c23.136-23.003 55.028-37.221 90.24-37.221s67.104 14.219 90.246 37.228l-0.006-0.006c23.088 23.151 37.364 55.1 37.364 90.383 0 34.512-13.659 65.834-35.865 88.855l0.037-0.038-1.536 1.536zM558.336 404.224c-11.451-11.495-27.295-18.609-44.8-18.609s-33.348 7.113-44.798 18.607l-0.002 0.002c-11.542 11.303-18.698 27.046-18.698 44.46 0 0.39 0.004 0.778 0.011 1.166l-0.001-0.058c0.020 35.19 28.552 63.708 63.744 63.708 17.594 0 33.522-7.128 45.056-18.653v0c11.554-11.616 18.697-27.63 18.697-45.312s-7.142-33.696-18.699-45.315l0.003 0.003z" />
<glyph unicode="&#xe910;" glyph-name="calendar" d="M736.256 736.256h-64.512v31.488c0.041 0.6 0.064 1.301 0.064 2.007 0 8.467-3.342 16.153-8.778 21.812l0.010-0.011c-5.431 5.268-12.848 8.515-21.023 8.515-0.71 0-1.414-0.024-2.111-0.073l0.094 0.005c-0.547 0.033-1.187 0.052-1.832 0.052-8.394 0-16.033-3.232-21.741-8.52l0.021 0.019c-5.42-5.757-8.75-13.534-8.75-22.089 0-0.605 0.017-1.206 0.049-1.802l-0.004 0.083v-31.488h-192v31.488c0.041 0.6 0.064 1.301 0.064 2.007 0 8.467-3.342 16.153-8.778 21.812l0.010-0.011c-5.684 5.254-13.313 8.476-21.694 8.476-0.473 0-0.944-0.010-1.413-0.031l0.067 0.002c-0.531 0.033-1.152 0.052-1.777 0.052-8.168 0-15.578-3.241-21.015-8.508l0.008 0.008c-5.426-5.648-8.768-13.335-8.768-21.801 0-0.706 0.023-1.407 0.069-2.101l-0.005 0.094v-31.488h-64.768c-0.461 0.008-1.004 0.013-1.549 0.013-52.171 0-94.464-42.293-94.464-94.464 0-0.545 0.005-1.088 0.014-1.63l-0.001 0.082v-448.256c-0.004-0.306-0.006-0.668-0.006-1.030 0-52.454 42.522-94.976 94.976-94.976 0.362 0 0.724 0.002 1.085 0.006h448.457c0.308-0.004 0.672-0.006 1.036-0.006 51.916 0 94.102 41.654 94.963 93.365l0.001 0.081v450.816c0.008 0.458 0.013 0.999 0.013 1.541 0 51.815-41.718 93.887-93.398 94.458h-0.054zM287.744 671.744h64.512v-31.488c-0.059-0.708-0.093-1.532-0.093-2.363 0-16.542 13.41-29.952 29.952-29.952 0.663 0 1.322 0.022 1.974 0.064l-0.089-0.005c0.72-0.062 1.559-0.097 2.405-0.097 15.675 0 28.538 12.041 29.843 27.378l0.008 0.111c0.121 0.731 0.191 1.573 0.191 2.432s-0.069 1.701-0.203 2.522l0.012-0.090v31.488h192v-31.488c-0.063-0.727-0.099-1.573-0.099-2.428 0-15.585 11.904-28.39 27.115-29.819l0.119-0.009h4.608c0.486-0.028 1.055-0.044 1.628-0.044 16.542 0 29.952 13.41 29.952 29.952 0 0.826-0.033 1.645-0.099 2.455l0.007-0.106v31.488h64.512c0.781 0.074 1.69 0.116 2.608 0.116 15.67 0 28.48-12.242 29.388-27.684l0.004-0.080v-99.84h-512v96c-0.048 0.628-0.075 1.36-0.075 2.098 0 15.655 12.22 28.456 27.641 29.386l0.082 0.004zM736.256 159.744h-448.512c-0.62-0.046-1.343-0.072-2.073-0.072-15.976 0-29.005 12.616-29.669 28.428l-0.002 0.060v291.584h512v-287.744c0.028-0.484 0.044-1.051 0.044-1.621 0-15.747-12.151-28.655-27.589-29.86l-0.103-0.006z" />
<glyph unicode="&#xe911;" glyph-name="pen" d="M370.944 192h-114.944v115.2l384 384 115.2-115.2zM822.784 599.040l-159.744 160.256c-5.834 5.613-13.777 9.070-22.528 9.070s-16.694-3.457-22.538-9.080l-416.758-416.758c-2.649-3-5.025-6.355-7.021-9.951l-0.147-0.289c-1.629-3.273-2.583-7.128-2.583-11.206 0-0.381 0.008-0.759 0.025-1.136l-0.002 0.054v-160c-0.061-0.719-0.096-1.555-0.096-2.4 0-16.542 13.41-29.952 29.952-29.952 0.845 0 1.682 0.035 2.509 0.104l-0.108-0.007h160.256c0.603-0.051 1.305-0.079 2.014-0.079 3.915 0 7.624 0.879 10.942 2.45l-0.156-0.066c3.994 1.687 7.344 4.215 9.949 7.38l0.035 0.044 416 416c6.055 5.627 9.831 13.635 9.831 22.524 0 8.128-3.156 15.518-8.31 21.012l0.015-0.017-1.536 1.536z" />
<glyph unicode="&#xe912;" glyph-name="copy" d="M292.096 385.024h-30.976c-0.499-0.029-1.084-0.046-1.672-0.046-8.454 0-16.103 3.443-21.622 9.004l-0.002 0.002c-4.662 5.555-7.493 12.782-7.493 20.67 0 0.744 0.025 1.482 0.075 2.213l-0.005-0.099v281.6c-0.010 0.299-0.016 0.651-0.016 1.004 0 8.407 3.216 16.062 8.485 21.804l-0.021-0.024c5.426 5.244 12.827 8.476 20.982 8.476 0.454 0 0.905-0.010 1.354-0.030l-0.064 0.002h281.6c0.462 0.026 1.003 0.041 1.548 0.041 8.123 0 15.464-3.348 20.718-8.739l0.006-0.006c5.259-5.429 8.5-12.84 8.5-21.007 0-0.625-0.019-1.246-0.056-1.861l0.004 0.085v-31.744c-0.011-0.298-0.017-0.647-0.017-0.998 0-8.338 3.437-15.874 8.97-21.267l0.006-0.006c6.088-5.227 14.065-8.409 22.784-8.409s16.696 3.182 22.831 8.448l-0.047-0.039c5.542 5.32 8.985 12.79 8.985 21.064 0 0.425-0.009 0.847-0.027 1.268l0.002-0.060v33.024c0.002 0.228 0.003 0.498 0.003 0.768 0 51.517-41.691 93.296-93.173 93.44h-281.614c-0.461 0.008-1.004 0.013-1.549 0.013-51.181 0-92.672-41.491-92.672-92.672 0-0.545 0.005-1.088 0.014-1.631l-0.001 0.082v-281.6c-0.033-0.918-0.051-1.996-0.051-3.078 0-50.899 41.261-92.16 92.16-92.16 0.378 0 0.756 0.002 1.133 0.007l-0.057-0.001h30.976c0.727-0.064 1.572-0.101 2.426-0.101 16.118 0 29.184 13.066 29.184 29.184 0 0.937-0.044 1.863-0.13 2.778l0.009-0.117c0.031 0.504 0.049 1.093 0.049 1.687 0 8.034-3.246 15.309-8.498 20.586l0.001-0.001c-5.504 5.263-12.981 8.502-21.215 8.502-0.642 0-1.279-0.020-1.911-0.058l0.087 0.004zM830.208 546.56c-16.309 15.892-38.62 25.693-63.219 25.693-1.445 0-2.882-0.034-4.311-0.101l0.202 0.008h-281.6c-0.54 0.011-1.176 0.018-1.814 0.018-50.326 0-91.257-40.227-92.392-90.28l-0.002-0.106v-285.184c-0.004-0.307-0.006-0.67-0.006-1.033 0-51.016 40.997-92.457 91.842-93.175l0.068-0.001h283.904c0.617-0.015 1.343-0.023 2.071-0.023 50.899 0 92.16 41.261 92.16 92.16 0 0.728-0.008 1.455-0.025 2.179l0.002-0.108v281.6c0.059 1.226 0.093 2.663 0.093 4.109 0 24.6-9.801 46.91-25.712 63.239l0.019-0.019zM793.6 196.608c0.016-0.37 0.025-0.805 0.025-1.241 0-8.251-3.226-15.749-8.486-21.301l0.013 0.014c-5.894-5.253-13.708-8.464-22.272-8.464-0.36 0-0.719 0.006-1.076 0.017l0.052-0.001h-281.6c-0.506-0.031-1.097-0.049-1.692-0.049-15.194 0-27.7 11.511-29.273 26.288l-0.011 0.129v287.232c-0.010 0.309-0.016 0.672-0.016 1.037 0 8.604 3.316 16.433 8.74 22.28l-0.019-0.021c5.536 5.241 13.030 8.464 21.277 8.464 0.35 0 0.698-0.006 1.045-0.017l-0.051 0.001h281.6c0.829 0.084 1.791 0.131 2.765 0.131 14.901 0 27.194-11.168 28.965-25.59l0.014-0.141c0.122-0.769 0.192-1.657 0.192-2.56s-0.070-1.791-0.204-2.656l0.012 0.096z" />
<glyph unicode="&#xe913;" glyph-name="trash" d="M588.8 274.432h4.096c0.771-0.063 1.669-0.098 2.575-0.098 8.906 0 17.008 3.446 23.045 9.077l-0.020-0.018c5.564 5.824 8.989 13.734 8.989 22.443 0 0.48-0.010 0.958-0.031 1.433l0.002-0.068v119.552c0.060 0.725 0.094 1.57 0.094 2.423 0 16.291-12.473 29.668-28.389 31.104l-0.121 0.009h-5.12c-0.407 0.018-0.885 0.029-1.365 0.029-8.709 0-16.619-3.425-22.455-9l0.012 0.012c-5.613-6.017-9.058-14.118-9.058-23.025 0-0.906 0.036-1.804 0.106-2.693l-0.007 0.117v-119.808c-0.009-0.274-0.014-0.597-0.014-0.921 0-15.889 12.063-28.961 27.53-30.556l0.131-0.011zM432.384 274.432c0.637-0.047 1.38-0.074 2.129-0.074 16.181 0 29.441 12.511 30.633 28.387l0.006 0.103v123.904c0.063 0.771 0.098 1.669 0.098 2.575 0 8.906-3.446 17.008-9.077 23.045l0.018-0.020c-5.824 5.564-13.734 8.989-22.443 8.989-0.48 0-0.958-0.010-1.433-0.031l0.068 0.002c-0.725 0.060-1.57 0.094-2.423 0.094-16.291 0-29.668-12.473-31.104-28.389l-0.009-0.121v-124.928c-0.017-0.393-0.027-0.854-0.027-1.317 0-8.643 3.427-16.486 8.996-22.244l-0.009 0.009c5.967-6.169 14.319-10 23.566-10 0.355 0 0.709 0.006 1.062 0.017l-0.051-0.001zM835.328 617.216c-5.789 5.573-13.672 9.005-22.357 9.005-0.6 0-1.197-0.016-1.789-0.049l0.082 0.004h-85.76v46.848c0 37.12 0 72.192-23.040 95.744-12.875 12.255-30.336 19.794-49.558 19.794-1.208 0-2.409-0.030-3.602-0.089l0.168 0.007c-52.876-2.713-99.768-26.283-132.988-62.574l-0.132-0.146h-8.704c-33.353 36.438-80.244 60.007-132.652 62.701l-0.468 0.019c-1.084 0.059-2.352 0.092-3.628 0.092-19.162 0-36.562-7.546-49.39-19.829l0.026 0.025c-23.552-23.808-23.296-58.624-23.296-95.744v-45.824h-85.504c-0.855 0.079-1.849 0.123-2.853 0.123-8.823 0-16.837-3.46-22.761-9.096l0.014 0.013c-5.809-6.312-9.371-14.772-9.371-24.064s3.561-17.752 9.393-24.089l-0.023 0.025c5.789-5.573 13.672-9.005 22.357-9.005 0.6 0 1.197 0.016 1.789 0.049l-0.082-0.004h35.072v-353.792c-0.011-0.538-0.017-1.173-0.017-1.809 0-54.15 43.898-98.048 98.048-98.048 0.636 0 1.271 0.006 1.904 0.018l-0.095-0.001h332.8c0.837-0.026 1.821-0.041 2.809-0.041 26.897 0 51.203 11.091 68.595 28.948l0.020 0.021c17.573 17.638 28.438 41.969 28.438 68.839 0 0.729-0.008 1.456-0.024 2.182l0.002-0.108v352.512h33.536c0.278-0.008 0.604-0.013 0.932-0.013 8.926 0 17.055 3.409 23.158 8.996l-0.026-0.023c5.917 5.85 9.582 13.968 9.582 22.942 0 0.936-0.040 1.862-0.118 2.778l0.008-0.119c-0.104 9.079-4.131 17.197-10.461 22.754l-0.035 0.030zM364.8 673.28c-0.254 3.54-0.398 7.671-0.398 11.835 0 12.76 1.357 25.204 3.935 37.194l-0.208-1.157c0.961 0.239 2.065 0.375 3.2 0.375s2.239-0.137 3.295-0.395l-0.095 0.020c35.745-2.53 66.943-20.090 87.61-46.331l0.198-0.261c5.791-10.047 16.472-16.701 28.708-16.701 0.708 0 1.41 0.022 2.107 0.066l-0.095-0.005c5.625 0.367 12.196 0.577 18.816 0.577s13.19-0.209 19.706-0.622l-0.89 0.045c0.59-0.037 1.279-0.058 1.973-0.058 12.319 0 23.087 6.643 28.917 16.541l0.085 0.157c20.586 26.862 51.749 44.727 87.155 47.336l0.397 0.024c3.84 0 5.888 0 6.144 0 2.578-10.825 4.056-23.254 4.056-36.028 0-4.349-0.171-8.657-0.507-12.92l0.036 0.563v-46.336h-294.144zM711.424 207.36c0.035-0.555 0.055-1.204 0.055-1.857 0-8.558-3.442-16.313-9.018-21.954l0.003 0.003c-5.801-5.637-13.729-9.112-22.468-9.112-1.103 0-2.193 0.055-3.267 0.163l0.135-0.011h-332.8c-0.967-0.104-2.089-0.163-3.225-0.163-8.712 0-16.61 3.481-22.381 9.128l0.006-0.006c-5.573 5.638-9.015 13.393-9.015 21.951 0 0.653 0.020 1.302 0.060 1.945l-0.004-0.088v352.512h401.92z" />
<glyph unicode="&#xe914;" glyph-name="help" d="M512 38.4c-226.216 0-409.6 183.384-409.6 409.6s183.384 409.6 409.6 409.6c226.216 0 409.6-183.384 409.6-409.6v0c0-226.216-183.384-409.6-409.6-409.6v0zM512 784.128c-185.638 0-336.128-150.49-336.128-336.128s150.49-336.128 336.128-336.128c185.638 0 336.128 150.49 336.128 336.128v0 0c-0.146 185.58-150.548 335.982-336.114 336.128h-0.014zM476.928 407.040c-0.006 0.412-0.009 0.899-0.009 1.386 0 35.227 17.354 66.4 43.979 85.438l0.318 0.216c10.658 7.663 19.97 16.082 28.264 25.426l0.152 0.174c5.435 6.464 9.448 14.307 11.447 22.923l0.073 0.373c0.672 2.448 1.058 5.258 1.058 8.159 0 13.926-8.895 25.774-21.314 30.172l-0.224 0.069c-7.935 3.157-17.13 4.988-26.752 4.988s-18.817-1.831-27.255-5.163l0.503 0.175c-11.113-5.668-19.932-14.487-25.449-25.275l-0.151-0.325c-4.605-7.239-12.585-11.972-21.671-11.972-2.121 0-4.182 0.258-6.153 0.744l0.176-0.037c-11.962 1.336-21.539 10.134-24.031 21.577l-0.033 0.183c-0.436 2.458-0.685 5.288-0.685 8.176 0 5.215 0.812 10.24 2.317 14.956l-0.096-0.348c5.21 17.364 16.422 31.57 31.174 40.527l0.314 0.177c20.94 12.016 46.037 19.103 72.788 19.103 30.051 0 58.013-8.943 81.37-24.312l-0.559 0.345c21.283-15.056 35.008-39.571 35.008-67.291 0-13.961-3.482-27.109-9.624-38.623l0.215 0.442c-10.447-20.167-24.189-37.18-40.703-50.991l-0.257-0.209c-8.704-7.68-17.408-14.848-25.6-23.040-8.676-8.721-14.231-20.553-14.844-33.678l-0.004-0.114c0-7.168 0-14.336 0-21.76-0.181-3.005-0.917-5.796-2.107-8.331l0.059 0.139c-8.704-13.824-22.784-12.8-36.352-12.288-0.375-0.025-0.812-0.039-1.253-0.039-10.099 0-18.469 7.402-19.981 17.077l-0.015 0.114c-1.108 5.801-2.018 12.911-2.526 20.131l-0.034 0.605zM466.944 288.768c0 0.076-0.001 0.165-0.001 0.255 0 23.046 18.682 41.728 41.728 41.728s41.728-18.682 41.728-41.728c0-23.046-18.682-41.728-41.728-41.728-0.090 0-0.179 0-0.269 0.001h0.014c-22.846 0.144-41.328 18.626-41.472 41.458v0.014z" />
<glyph unicode="&#xe915;" glyph-name="caution" d="M512 112.64c-182.489 1.72-329.761 150.054-329.761 332.786 0 183.8 149 332.8 332.8 332.8s332.8-149 332.8-332.8c0-137.593-83.5-255.684-202.591-306.363l-2.176-0.823c-37.818-16.197-81.826-25.614-128.033-25.614-1.068 0-2.135 0.005-3.201 0.015l0.163-0.001zM512 857.6c-1.094 0.011-2.387 0.017-3.681 0.017-56.422 0-110.071-11.876-158.582-33.264l2.519 0.991c-50.821-21.288-94.194-50.787-130.547-87.283l-0.013-0.013c-36.227-36.548-65.814-79.749-86.753-127.598l-1.055-2.706c-19.916-46.349-31.498-100.297-31.498-156.95 0-0.982 0.003-1.964 0.010-2.944l-0.001 0.15c-0.011-1.086-0.017-2.369-0.017-3.653 0-56.359 11.586-110.013 32.505-158.709l-1 2.618c42.394-98.828 119.54-175.974 215.706-217.349l2.662-1.019c45.518-19.929 98.565-31.525 154.321-31.525 1.907 0 3.811 0.014 5.711 0.041l-0.288-0.003c1.094-0.011 2.387-0.017 3.681-0.017 56.422 0 110.071 11.876 158.582 33.264l-2.519-0.991c98.828 42.394 175.974 119.54 217.349 215.706l1.019 2.662c19.915 46.074 31.498 99.723 31.498 156.076 0 1.020-0.004 2.038-0.011 3.056l0.001-0.157c0.006 0.83 0.010 1.812 0.010 2.794 0 56.653-11.581 110.601-32.505 159.606l1.008-2.655c-21.994 50.555-51.581 93.756-87.838 130.334l0.030-0.030c-36.366 36.509-79.739 66.008-127.936 86.315l-2.624 0.981c-45.992 20.397-99.641 32.273-156.063 32.273-1.294 0-2.587-0.006-3.878-0.019l0.197 0.001zM486.4 324.864c-3.15-3.447-5.95-7.307-8.287-11.463l-0.161-0.313c-1.941-4.254-3.072-9.227-3.072-14.464s1.131-10.21 3.163-14.687l-0.091 0.223c2.498-4.469 5.298-8.329 8.491-11.824l-0.043 0.048c3.447-3.034 7.306-5.75 11.443-8.024l0.333-0.168c4.214-1.935 9.143-3.064 14.336-3.064s10.122 1.128 14.555 3.153l-0.219-0.090c4.47 2.442 8.329 5.158 11.847 8.254l-0.071-0.062c3.38 3.886 6.217 8.365 8.32 13.236l0.128 0.332c1.979 3.713 3.141 8.121 3.141 12.8s-1.162 9.087-3.214 12.95l0.072-0.15c-2.231 5.203-5.068 9.682-8.501 13.63l0.053-0.062c-6.503 7.32-15.941 11.91-26.451 11.91-9.641 0-18.38-3.862-24.754-10.123l-1.787-1.787zM512 634.112c-0.302 0.009-0.658 0.013-1.015 0.013-10.1 0-19.29-3.9-26.145-10.275l0.024 0.022c-6.515-6.568-10.54-15.612-10.54-25.597 0-0.631 0.016-1.259 0.048-1.882l-0.004 0.087v-148.48c-0.026-0.519-0.041-1.128-0.041-1.74 0-10.083 4.020-19.226 10.544-25.916l-0.007 0.008c7.267-6.186 16.762-9.948 27.136-9.948s19.869 3.763 27.195 9.998l-0.059-0.049c6.517 6.682 10.537 15.826 10.537 25.908 0 0.612-0.015 1.22-0.044 1.825l0.003-0.085v148.48c0.031 0.555 0.049 1.204 0.049 1.858 0 10.013-4.136 19.060-10.792 25.526l-0.009 0.008c-6.686 6.351-15.747 10.258-25.721 10.258-0.407 0-0.813-0.007-1.218-0.019l0.059 0.001z" />
<glyph unicode="&#xe916;" glyph-name="warning" d="M484.608 290.304c-3.127-3.147-5.776-6.776-7.822-10.764l-0.114-0.244c-1.799-3.699-2.851-8.046-2.851-12.639 0-0.507 0.013-1.010 0.038-1.511l-0.003 0.070c-0.017-0.369-0.027-0.802-0.027-1.237 0-4.487 1.050-8.73 2.917-12.495l-0.074 0.164c2.434-4.369 5.062-8.14 8.020-11.621l-0.084 0.101c3.351-2.898 7.133-5.454 11.2-7.532l0.32-0.148c4.106-1.585 8.858-2.503 13.824-2.503s9.718 0.918 14.094 2.594l-0.27-0.091c4.305 2.146 8.011 4.707 11.302 7.714l-0.038-0.034c3.237 3.642 5.911 7.876 7.828 12.505l0.108 0.295c1.711 3.593 2.817 7.782 3.068 12.199l0.004 0.089c-0.284 4.777-1.387 9.224-3.17 13.307l0.098-0.251c-1.958 4.669-4.637 8.662-7.943 12.039l0.007-0.007c-6.279 6.717-15.192 10.903-25.083 10.903-9.13 0-17.426-3.566-23.573-9.382l0.016 0.015-1.792-1.536zM510.208 587.264c-0.367 0.014-0.799 0.021-1.232 0.021-9.455 0-18.042-3.714-24.382-9.763l0.014 0.013c-6.196-5.97-10.045-14.34-10.045-23.609 0-0.7 0.022-1.396 0.065-2.085l-0.005 0.094v-143.104c0-19.935 16.161-36.096 36.096-36.096s36.096 16.161 36.096 36.096v0 0 143.36c0.008 0.276 0.012 0.601 0.012 0.927 0 9.641-3.919 18.368-10.251 24.672l-0.001 0.001c-6.33 5.887-14.845 9.499-24.204 9.499-0.491 0-0.98-0.010-1.466-0.030l0.070 0.002zM839.424 168.704c-3.735-3.198-8.049-5.868-12.737-7.819l-0.319-0.117c-3.517-1.726-7.647-2.759-12.013-2.816h-617.747c-3.309 0.785-6.22 2.111-8.788 3.895l0.084-0.055c-8.364 4.4-14.422 12.223-16.349 21.556l-0.035 0.204c-0.719 3.125-1.131 6.714-1.131 10.4 0 6.201 1.166 12.129 3.292 17.578l-0.113-0.329 304.384 505.088c1.956 1.932 3.653 4.119 5.041 6.508l0.079 0.148c1.792 2.816 3.328 4.352 5.12 4.352 5.604 3.311 12.348 5.268 19.55 5.268 12.996 0 24.505-6.371 31.572-16.161l0.079-0.114 303.616-504.832c1.73-1.998 2.856-4.562 3.069-7.381l0.003-0.043c0-3.328 0-6.656 0-9.984 0.97-2.066 1.537-4.487 1.537-7.040s-0.566-4.974-1.58-7.144l0.044 0.104c-2.064-3.2-4.034-6.9-5.697-10.765l-0.191-0.499zM903.936 247.552l-301.056 507.648c-7.504 12.585-17.183 23.080-28.62 31.278l-0.308 0.21c-11.113 8.355-24.043 15.075-38.005 19.466l-0.907 0.246c-8.66 2.116-18.601 3.329-28.826 3.329-4.906 0-9.747-0.279-14.508-0.823l0.582 0.054c-23.492-3.326-44.175-13.431-60.511-28.245l0.095 0.085c-6.042-5.792-11.091-12.558-14.909-20.057l-0.195-0.423-300.288-512c-8.659-15.279-13.762-33.559-13.762-53.030 0-39.606 21.113-74.281 52.698-93.384l0.487-0.274c6.382-5.722 14.245-9.923 22.941-11.962l0.355-0.070c7.664-1.877 16.482-2.992 25.547-3.072h609.589c14.766 0.065 28.834 2.973 41.71 8.206l-0.75-0.27c13.407 5.304 24.676 13.529 33.433 23.938l0.103 0.126c10.237 9.931 18.797 21.517 25.265 34.338l0.335 0.734c4.564 10.998 7.214 23.771 7.214 37.163 0 1.065-0.017 2.126-0.050 3.183l0.004-0.154c-2.304 8.96-4.608 18.432-6.656 28.16-2.16 9.793-6.256 18.394-11.891 25.756l0.115-0.156z" />
<glyph unicode="&#xe917;" glyph-name="error" d="M875.776 618.752l-210.176 210.432c-1.924 4.043-5.389 7.091-9.616 8.418l-0.112 0.030c-4.574 1.558-9.846 2.489-15.326 2.56h-292.642c-5.514-0.071-10.786-1.002-15.721-2.666l0.361 0.106c-4.339-1.357-7.804-4.405-9.687-8.352l-0.041-0.096-210.432-210.432c-3.565-2.086-6.218-5.404-7.395-9.358l-0.029-0.114c-1.622-4.308-2.562-9.287-2.562-14.486 0-0.127 0.001-0.255 0.002-0.382v0.019-296.448c-0.005-0.215-0.008-0.469-0.008-0.724 0-9.175 3.831-17.455 9.98-23.329l0.012-0.012 210.432-209.92c2.739-2.258 5.986-4.014 9.534-5.070l0.194-0.050c4.407-1.624 9.496-2.564 14.805-2.564 0.195 0 0.39 0.001 0.585 0.004h295.65c0.43-0.022 0.934-0.035 1.441-0.035 4.593 0 8.941 1.052 12.815 2.928l-0.175-0.077c4.207 2.232 7.827 4.873 11.023 7.95l-0.015-0.014 210.432 210.432c3.063 3.181 5.704 6.801 7.81 10.749l0.126 0.259c1.799 3.699 2.851 8.046 2.851 12.639 0 0.507-0.013 1.010-0.038 1.511l0.003-0.070v291.84c-2.304 5.12-4.352 9.984-6.144 14.848-1.581 4.007-4.343 7.264-7.853 9.424l-0.083 0.048zM814.848 316.416l-188.928-188.672h-263.68l-188.928 188.672v263.936l188.928 188.672h267.008l185.6-188.672zM494.080 627.2c-0.417 0.017-0.905 0.027-1.396 0.027-9.358 0-17.873-3.613-24.226-9.52l0.022 0.020c-6.185-6.28-10.004-14.906-10.004-24.424 0-0.414 0.007-0.826 0.022-1.236l-0.002 0.059v-144.128c-0.018-0.411-0.028-0.894-0.028-1.379 0-9.455 3.825-18.017 10.013-24.222l-0.001 0.001c6.861-5.822 15.817-9.363 25.6-9.363s18.739 3.54 25.657 9.41l-0.057-0.047c6.187 6.204 10.012 14.766 10.012 24.221 0 0.485-0.010 0.968-0.030 1.448l0.002-0.069v142.336c0.013 0.351 0.020 0.763 0.020 1.176 0 9.518-3.819 18.143-10.008 24.428l0.004-0.004c-6.426 6.852-15.5 11.153-25.58 11.264h-0.020zM468.48 331.776c-2.784-3.438-5.334-7.295-7.494-11.389l-0.186-0.387c-1.817-4.032-2.876-8.74-2.876-13.696s1.059-9.664 2.962-13.912l-0.086 0.216c2.346-4.277 4.978-7.97 7.985-11.319l-0.049 0.055c3.311-2.882 6.998-5.508 10.927-7.758l0.337-0.178c4.071-1.823 8.824-2.885 13.824-2.885s9.753 1.062 14.044 2.973l-0.22-0.087c4.267 2.515 7.948 5.136 11.386 8.036l-0.122-0.1c3.133 3.681 5.795 7.901 7.807 12.472l0.129 0.328c1.814 3.542 2.877 7.727 2.877 12.16s-1.063 8.618-2.948 12.314l0.071-0.154c-2.068 5.007-4.738 9.321-7.991 13.122l0.055-0.066c-6.312 6.656-15.22 10.798-25.095 10.798-9.108 0-17.392-3.523-23.566-9.28l0.020 0.019-1.536-1.536z" />
<glyph unicode="&#xe918;" glyph-name="success" d="M830.72 518.912c-0.448 0.018-0.974 0.028-1.502 0.028-10.987 0-20.944-4.408-28.199-11.553l0.005 0.005c-6.683-7.265-10.779-17-10.779-27.692 0-0.525 0.010-1.047 0.029-1.567l-0.002 0.075v-30.208c0.003-0.508 0.005-1.108 0.005-1.709 0-120.841-72.997-224.634-177.301-269.686l-1.904-0.732c-34.028-14.569-73.625-23.040-115.2-23.040s-81.172 8.471-117.159 23.78l1.959-0.74c-71.069 30.272-126.546 85.666-156.2 154.766l-0.728 1.906c-14.529 34.034-22.976 73.631-22.976 115.2s8.447 81.166 23.717 117.167l-0.741-1.967c30.47 71.019 85.909 126.458 155.015 156.196l1.913 0.732c33.495 14.569 72.512 23.045 113.509 23.045 0.594 0 1.188-0.002 1.782-0.005h-0.091c0.026 0 0.057 0 0.088 0 21.842 0 43.096-2.519 63.487-7.282l-1.88 0.37c23.084-5.465 42.978-12.14 62.041-20.376l-2.393 0.92c4.547-1.878 9.826-2.969 15.36-2.969s10.813 1.091 15.635 3.069l-0.275-0.1c10.053 3.401 17.87 11.050 21.428 20.754l0.076 0.238c1.884 4.506 2.978 9.741 2.978 15.232s-1.094 10.726-3.076 15.5l0.099-0.268c-3.401 10.053-11.050 17.87-20.754 21.428l-0.238 0.076c-20.87 9.687-45.593 18.452-71.22 24.951l-3.020 0.649c-23.788 5.857-51.096 9.216-79.19 9.216-0.060 0-0.12 0-0.18 0h0.010c-0.683 0.005-1.491 0.007-2.3 0.007-52.099 0-101.645-10.929-146.471-30.62l2.339 0.916c-46.585-19.649-86.311-46.898-119.508-80.596l-0.044-0.044c-33.087-33.424-60.159-72.879-79.408-116.556l-0.976-2.484c-18.137-42.735-28.679-92.437-28.679-144.601 0-0.824 0.003-1.647 0.008-2.469l-0.001 0.127c-0.011-1.039-0.017-2.266-0.017-3.495 0-51.507 10.549-100.551 29.604-145.088l-0.916 2.407c38.874-90.525 109.603-161.171 197.751-199.004l2.441-0.932c43.212-18.778 93.546-29.702 146.432-29.702s103.219 10.924 148.869 30.639l-2.437-0.937c135.536 57.485 228.876 189.429 228.876 343.173 0 1.034-0.004 2.066-0.013 3.098l0.001-0.158v30.208c0.017 0.445 0.027 0.967 0.027 1.492 0 10.692-4.097 20.427-10.806 27.721l0.027-0.029c-7.171 7.127-17.055 11.532-27.967 11.532-0.338 0-0.675-0.004-1.010-0.013l0.050 0.001zM892.16 778.496v0c-7.299 7.002-17.226 11.313-28.16 11.313s-20.861-4.311-28.174-11.326l0.014 0.013-340.736-340.992-72.192 72.192c-7.165 6.715-16.829 10.84-27.456 10.84-22.197 0-40.192-17.995-40.192-40.192 0-9.798 3.506-18.778 9.332-25.752l-0.052 0.064 1.536-1.536 101.12-100.864c3.974-3.706 8.763-6.596 14.063-8.369l0.273-0.079c4.010-1.7 8.674-2.688 13.568-2.688s9.558 0.988 13.802 2.776l-0.234-0.087c5.714 2.121 10.639 5.070 14.91 8.756l-0.062-0.052 368.64 369.408c7.53 7.152 12.213 17.238 12.213 28.418 0 10.415-4.065 19.881-10.695 26.897l0.018-0.019h-1.536z" />
<glyph unicode="&#xe919;" glyph-name="link" d="M699.136 451.584h-2.816c-0.469 0.024-1.018 0.038-1.57 0.038-17.57 0-31.911-13.829-32.731-31.196l-0.003-0.074v-187.136c0.023-0.413 0.036-0.897 0.036-1.384 0-7.215-2.843-13.766-7.469-18.594l0.009 0.010c-4.653-4.764-11.141-7.718-18.319-7.718-0.49 0-0.977 0.014-1.46 0.041l0.067-0.003h-338.176c-0.415-0.024-0.901-0.038-1.39-0.038-7.051 0-13.437 2.851-18.066 7.463l0.001-0.001c-4.613 5.14-7.434 11.97-7.434 19.459 0 0.269 0.004 0.537 0.011 0.805l-0.001-0.039v337.664c-0.018 0.371-0.028 0.805-0.028 1.242 0 7.34 2.834 14.018 7.467 19l-0.016-0.017c4.605 4.477 10.898 7.237 17.837 7.237 0.66 0 1.314-0.025 1.961-0.074l-0.086 0.005h184.064c0.388-0.015 0.843-0.024 1.3-0.024 9.388 0 17.934 3.61 24.324 9.517l-0.024-0.022c5.624 5.91 9.083 13.925 9.083 22.747 0 1.004-0.045 1.998-0.133 2.98l0.009-0.127c0.066 0.781 0.103 1.69 0.103 2.607 0 8.942-3.554 17.054-9.327 23.001l0.008-0.008c-6.225 5.596-14.501 9.018-23.577 9.018-0.712 0-1.419-0.021-2.12-0.063l0.097 0.005h-185.856c-0.005 0-0.011 0-0.017 0-51.605 0-93.44-41.835-93.44-93.44 0-0.63 0.006-1.259 0.019-1.886l-0.001 0.094v-339.456c-0.002-0.23-0.003-0.502-0.003-0.774 0-51.812 41.713-93.882 93.389-94.458h341.559c0.003 0 0.006 0 0.009 0 51.438 0 93.222 41.337 93.943 92.604l0.001 0.068v186.624c0.033 0.547 0.052 1.187 0.052 1.832 0 8.394-3.232 16.033-8.52 21.741l0.019-0.021c-5.733 6.204-13.743 10.231-22.694 10.748l-0.090 0.004zM696.064 448.256v0 0zM822.272 724.48c-0.341 9.135-3.978 17.359-9.749 23.575l0.021-0.023c-3.435 2.919-7.415 5.336-11.744 7.066l-0.288 0.102c-3.221 1.317-6.958 2.082-10.874 2.082-0.497 0-0.992-0.012-1.483-0.037l0.069 0.003h-184.064c-0.781 0.066-1.69 0.103-2.607 0.103-8.942 0-17.054-3.554-23.001-9.327l0.008 0.008c-6.014-5.785-9.75-13.901-9.75-22.89 0-0.413 0.008-0.824 0.024-1.233l-0.002 0.059c-0.044-0.636-0.068-1.377-0.068-2.125 0-9.181 3.746-17.487 9.794-23.472l0.003-0.003c6.155-5.747 14.446-9.276 23.561-9.276 0.717 0 1.43 0.022 2.136 0.065l-0.097-0.005h102.4l-279.552-278.784c-6.094-6.188-9.856-14.687-9.856-24.064s3.763-17.876 9.861-24.068l-0.004 0.004c2.903-2.795 6.289-5.115 10.015-6.82l0.225-0.092c3.652-1.459 7.884-2.305 12.314-2.305 0.081 0 0.162 0 0.242 0.001h-0.012c0.137-0.002 0.299-0.003 0.461-0.003 4.462 0 8.704 0.943 12.536 2.642l-0.198-0.078c4.273 1.748 7.928 4.172 11.016 7.175l-0.008-0.007 280.576 280.064v-102.4c-0.039-0.605-0.062-1.313-0.062-2.025 0-9.211 3.742-17.548 9.789-23.574l0.001-0.001c6.474-5.757 15.050-9.273 24.448-9.273s17.974 3.517 24.485 9.306l-0.037-0.033c5.917 5.85 9.582 13.968 9.582 22.942 0 0.936-0.040 1.862-0.118 2.778l0.008-0.119z" />
<glyph unicode="&#xe91a;" glyph-name="wallet" d="M795.904 284.16c-0.076 0.001-0.167 0.001-0.257 0.001-17.532 0-31.744-14.212-31.744-31.744 0-0.090 0-0.181 0.001-0.271v0.014-48.128c-1.197-15.838-14.342-28.235-30.382-28.235-0.749 0-1.493 0.027-2.228 0.080l0.099-0.006h-449.792c-0.632-0.047-1.369-0.074-2.113-0.074-15.989 0-29.076 12.422-30.138 28.142l-0.005 0.092v488.192c1.206 15.83 14.347 28.218 30.381 28.218 0.66 0 1.314-0.021 1.964-0.062l-0.089 0.005h380.416c0.561 0.037 1.215 0.058 1.875 0.058 16.034 0 29.175-12.388 30.375-28.115l0.006-0.103v-25.6h-342.272c-17.673 0-32-14.327-32-32s14.327-32 32-32v0h379.392c0.726 0.061 1.57 0.097 2.423 0.097 15.142 0 27.703-11.047 30.065-25.521l0.024-0.176v-25.6c0-17.673 14.327-32 32-32s32 14.327 32 32v0 25.6c-1.881 41.469-30.522 75.76-68.978 86.122l-0.654 0.15v28.928c-1.278 51.178-43.069 92.178-94.436 92.178-0.64 0-1.278-0.006-1.915-0.019l0.095 0.001h-380.416c-0.541 0.011-1.18 0.018-1.82 0.018-51.367 0-93.158-40.999-94.434-92.059l-0.002-0.118v-488.192c1.138-51.29 42.985-92.433 94.442-92.433 0.638 0 1.274 0.006 1.909 0.019l-0.095-0.001h449.792c0.618-0.015 1.346-0.023 2.076-0.023 51.369 0 93.161 41.002 94.434 92.065l0.002 0.118v48.384c0 17.673-14.327 32-32 32v0zM779.776 509.44h-179.2c-56.554 0-102.4-45.846-102.4-102.4s45.846-102.4 102.4-102.4v0h179.2c56.554 0 102.4 45.846 102.4 102.4s-45.846 102.4-102.4 102.4v0zM779.776 369.664h-179.2c-21.208 0-38.4 17.192-38.4 38.4s17.192 38.4 38.4 38.4v0h179.2c21.208 0 38.4-17.192 38.4-38.4s-17.192-38.4-38.4-38.4v0z" />
<glyph unicode="&#xe91b;" glyph-name="edit" d="M472.064 166.4h-179.2c-0.077-0.001-0.169-0.001-0.26-0.001-16.362 0-29.66 13.12-29.947 29.414v490.011c0.429 16.35 13.785 29.44 30.198 29.44 0.003 0 0.007 0 0.010 0h409.599c0.003 0 0.006 0 0.010 0 16.413 0 29.769-13.090 30.197-29.4l0.001-0.040v-92.16c0-15.835 12.837-28.672 28.672-28.672s28.672 12.837 28.672 28.672v0 92.16c0 0 0 0.001 0 0.001 0 48.456-39.136 87.772-87.524 88.062h-409.628c-48.636 0-88.064-39.428-88.064-88.064v0-489.472c0 0 0-0.001 0-0.001 0-48.456 39.136-87.772 87.524-88.062h179.228c0.822-0.082 1.777-0.128 2.742-0.128 16.259 0 29.44 13.181 29.44 29.44s-13.181 29.44-29.44 29.44c-0.966 0-1.92-0.046-2.862-0.137l0.12 0.009zM512 464.896h-167.168c-15.036-1.448-26.698-14.018-26.698-29.312s11.662-27.864 26.578-29.303l0.12-0.009h167.168c0.822-0.082 1.777-0.128 2.742-0.128 16.259 0 29.44 13.181 29.44 29.44s-13.181 29.44-29.44 29.44c-0.966 0-1.92-0.046-2.862-0.137l0.12 0.009zM344.832 611.584c-15.036-1.448-26.698-14.018-26.698-29.312s11.662-27.864 26.578-29.303l0.12-0.009h276.48c15.036 1.448 26.698 14.018 26.698 29.312s-11.662 27.864-26.578 29.303l-0.12 0.009zM424.96 259.328c0.822-0.082 1.777-0.128 2.742-0.128 16.259 0 29.44 13.181 29.44 29.44s-13.181 29.44-29.44 29.44c-0.966 0-1.92-0.046-2.862-0.137l0.12 0.009h-80.128c-15.036-1.448-26.698-14.018-26.698-29.312s11.662-27.864 26.578-29.303l0.12-0.009zM913.152 404.992l-112.128 114.432c-5.101 5.129-12.164 8.304-19.968 8.304s-14.867-3.175-19.967-8.303l-0.001-0.001-209.92-214.528c-6.123-5.153-9.986-12.821-9.986-21.391 0-0.13 0.001-0.259 0.003-0.388v0.020l-3.584-116.736c-0.009-0.271-0.014-0.59-0.014-0.909 0-7.95 3.235-15.144 8.461-20.337l0.001-0.001c5.207-5.18 12.31-8.459 20.178-8.703l0.046-0.001 117.504 2.56c2.902 0.186 5.604 0.828 8.107 1.854l-0.171-0.062 2.048 1.28c2.657 1.544 4.914 3.066 7.064 4.721l-0.152-0.113 211.2 216.064c5.839 5.438 9.48 13.17 9.48 21.752 0 7.95-3.124 15.17-8.211 20.5l0.011-0.012zM597.504 268.8l183.296 187.136 71.424-72.96-183.296-185.856-72.704-1.536z" />
<glyph unicode="&#xe91c;" glyph-name="upload" d="M512 360.192v0 0 0zM400.896 613.12l76.8 76.8v-295.68c1.573-17.628 16.273-31.343 34.176-31.343s32.603 13.715 34.167 31.212l0.009 0.132v296.192l76.8-76.8c6.157-6.163 14.665-9.977 24.063-9.984h0.001c18.781 0.216 33.922 15.49 33.922 34.302 0 9.378-3.764 17.878-9.863 24.070l-134.908 134.908c-6.352 5.826-14.855 9.397-24.192 9.397s-17.84-3.57-24.218-9.421l0.026 0.024-135.168-135.424c-5.184-5.976-8.343-13.831-8.343-22.423 0-18.946 15.358-34.304 34.304-34.304 8.592 0 16.447 3.159 22.466 8.379l-0.043-0.036zM858.88 193.536l-35.584 275.712c-6.131 43.611-43.196 76.8-88.013 76.8-0.018 0-0.036 0-0.053 0h-59.645c-18.804 0-34.048-15.244-34.048-34.048s15.244-34.048 34.048-34.048v0h59.648c10.368-0.050 18.912-7.797 20.213-17.817l0.011-0.103 36.096-277.76c0.059-0.614 0.093-1.327 0.093-2.048s-0.034-1.434-0.1-2.138l0.007 0.090c0-11.311-9.169-20.48-20.48-20.48v0h-518.656c-6.553 0.337-12.264 3.668-15.83 8.642l-0.042 0.062c-2.849 3.848-4.561 8.689-4.561 13.93 0 2.054 0.263 4.047 0.757 5.946l-0.036-0.164 32.768 276.224c1.87 9.541 10.164 16.64 20.117 16.64 0.038 0 0.075 0 0.113 0h62.202c17.628 1.573 31.343 16.273 31.343 34.176s-13.715 32.603-31.212 34.167l-0.132 0.009h-62.208c-43.719-0.471-79.915-32.091-87.469-73.692l-0.083-0.548-32.768-277.248c-1.060-5.118-1.709-11.033-1.791-17.086l-0.001-0.066c0 0 0 0 0 0 0-49.112 39.74-88.942 88.818-89.088h519.182c0.078 0 0.171 0 0.264 0 27.427 0 51.908 12.611 67.961 32.352l0.127 0.161c12.679 14.923 20.389 34.41 20.389 55.699 0 5.56-0.526 10.997-1.531 16.265l0.086-0.539z" />
<glyph unicode="&#xe91d;" glyph-name="download" d="M477.952 318.464c6.157-6.163 14.665-9.977 24.063-9.984h0.001c9.399 0.007 17.907 3.821 24.064 9.984v0l135.424 135.168c4.004 5.54 6.404 12.47 6.404 19.96 0 18.946-15.358 34.304-34.304 34.304-7.167 0-13.82-2.198-19.323-5.956l0.118 0.076-76.8-76.8v295.936c0 18.804-15.244 34.048-34.048 34.048s-34.048-15.244-34.048-34.048v0-296.192l-76.8 76.8c-6.326 7.295-15.608 11.881-25.961 11.881-18.946 0-34.304-15.358-34.304-34.304 0-10.353 4.586-19.635 11.838-25.925l0.043-0.036zM850.432 275.968c0.003 0.155 0.004 0.337 0.004 0.521 0 18.677-14.926 33.868-33.5 34.295l-0.040 0.001c-18.711-0.138-33.876-15.124-34.303-33.752l-0.001-0.040v-56.832c-0.126-1.075-0.198-2.321-0.198-3.584s0.072-2.509 0.212-3.734l-0.014 0.15c0.061-0.614 0.095-1.327 0.095-2.048s-0.035-1.434-0.102-2.137l0.007 0.089c0-11.311-9.169-20.48-20.48-20.48v0h-523.776c-9.48 1.919-16.517 10.184-16.517 20.093 0 1.405 0.142 2.777 0.411 4.103l-0.022-0.132c0.126 1.075 0.198 2.321 0.198 3.584s-0.072 2.509-0.212 3.734l0.014-0.15v60.416c-0.217 18.781-15.492 33.922-34.304 33.922-18.947 0-34.306-15.359-34.306-34.306 0-0.135 0.001-0.27 0.002-0.404v0.020-57.088c-0.184-1.994-0.289-4.313-0.289-6.656s0.105-4.662 0.31-6.951l-0.021 0.295c0-49.061 39.771-88.832 88.832-88.832v0h532.224c43.205 6.645 75.906 43.557 75.906 88.107 0 5.047-0.42 9.996-1.226 14.814l0.072-0.521v53.76z" />
<glyph unicode="&#xe920;" glyph-name="list" d="M258.048 417.024h374.528c17.108 0 30.976 13.868 30.976 30.976s-13.868 30.976-30.976 30.976v0h-374.528c-17.108 0-30.976-13.868-30.976-30.976s13.868-30.976 30.976-30.976v0zM765.952 268.8h-507.904c-17.108 0-30.976-13.868-30.976-30.976s13.868-30.976 30.976-30.976v0h507.904c17.108 0 30.976 13.868 30.976 30.976s-13.868 30.976-30.976 30.976v0zM258.048 627.2h507.904c17.108 0 30.976 13.868 30.976 30.976s-13.868 30.976-30.976 30.976v0h-507.904c-17.108 0-30.976-13.868-30.976-30.976s13.868-30.976 30.976-30.976v0z" />
<glyph unicode="&#xe921;" glyph-name="mail" d="M772.608 219.392h-521.216c-0.393-0.017-0.855-0.026-1.318-0.026-8.805 0-16.811 3.419-22.764 9.003l0.018-0.017c-5.43 5.723-8.77 13.476-8.77 22.008 0 0.723 0.024 1.441 0.071 2.152l-0.005-0.097v329.216l273.408-192.512 10.24-4.608c2.794-1.445 6.098-2.292 9.6-2.292s6.806 0.847 9.719 2.348l-0.119-0.056 10.24 4.608 273.664 192.512v-329.216c0.075-0.797 0.117-1.723 0.117-2.659 0-15.824-12.167-28.806-27.655-30.102l-0.11-0.007h-5.12zM251.392 675.584h521.216c0.4 0.019 0.869 0.029 1.341 0.029 5.839 0 11.298-1.629 15.947-4.458l-0.136 0.077c5.324-3.734 9.578-8.644 12.443-14.37l0.101-0.222-290.304-202.496-290.304 202.496c2.966 5.948 7.22 10.858 12.421 14.51l0.123 0.082c4.513 2.752 9.972 4.381 15.811 4.381 0.472 0 0.941-0.011 1.407-0.032l-0.066 0.002zM772.608 741.376h-521.216c-0.765 0.022-1.666 0.035-2.569 0.035-26.347 0-50.174-10.786-67.307-28.183l-0.012-0.012c-17.256-17.276-27.928-41.132-27.928-67.481 0-0.756 0.009-1.511 0.026-2.263l-0.002 0.112v-391.168c-0.018-0.698-0.029-1.52-0.029-2.345 0-51.756 41.177-93.896 92.558-95.444l0.142-0.003h526.336c0.698-0.018 1.52-0.029 2.345-0.029 51.756 0 93.896 41.177 95.444 92.558l0.003 0.142v396.288c0.015 0.64 0.024 1.395 0.024 2.151 0 26.349-10.672 50.205-27.929 67.481l0.001-0.001c-17.145 17.409-40.973 28.195-67.319 28.195-0.903 0-1.804-0.013-2.701-0.038l0.132 0.003z" />
<glyph unicode="&#xe922;" glyph-name="plan-free" d="M739.072 462.848v0l-72.448-76.8h-173.056l161.024 160.512c5.225 5.533 8.436 13.015 8.436 21.248s-3.212 15.715-8.45 21.263l0.014-0.015c-5.329 5.609-12.843 9.098-21.172 9.098-7.284 0-13.945-2.669-19.058-7.081l0.038 0.032-1.28-1.28-282.88-281.6v173.056l196.608 197.12c14.17 14.408 31.211 25.944 50.201 33.688l0.999 0.36c16.751 7.157 36.242 11.317 56.704 11.317s39.952-4.161 57.671-11.682l-0.967 0.365c19.849-8.246 36.782-19.76 50.933-34.037l0.011-0.011c13.916-14.236 25.032-31.274 32.418-50.181l0.35-1.019c6.485-16.914 10.241-36.48 10.241-56.923 0-0.148 0-0.296-0.001-0.444v0.023c-0.302-20.574-4.603-40.064-12.156-57.837l0.38 1.005c-7.971-19.513-19.525-36.079-33.97-49.592l-0.078-0.072zM545.28 266.24h-172.288l60.16 60.416h172.544zM781.568 720.384c-19.286 19.62-42.69 35.125-68.819 45.123l-1.325 0.445c-23.633 9.832-51.086 15.543-79.872 15.543s-56.239-5.711-81.286-16.061l1.414 0.518c-27.334-10.786-50.678-26.239-70.156-45.58l0.012 0.012-203.008-204.8c-2.57-2.773-4.717-5.986-6.309-9.504l-0.091-0.224c-1.319-2.984-2.086-6.463-2.086-10.122 0-0.492 0.014-0.98 0.041-1.465l-0.003 0.067v-245.504l-82.432-82.432c-5.225-5.533-8.436-13.015-8.436-21.248s3.212-15.715 8.45-21.263l-0.014 0.015c2.91-2.491 6.185-4.704 9.698-6.522l0.286-0.134c3.26-1.615 7.099-2.56 11.159-2.56 0.037 0 0.074 0 0.11 0h-0.006c0.252-0.009 0.548-0.014 0.844-0.014 4.071 0 7.92 0.95 11.337 2.641l-0.15-0.067c3.679 1.595 6.82 3.753 9.472 6.4v0l81.664 81.664h245.504c0.297-0.013 0.645-0.021 0.995-0.021 3.934 0 7.645 0.954 10.914 2.643l-0.133-0.062c3.599 1.954 6.706 4.163 9.516 6.695l-0.044-0.039 203.008 204.8c20.237 19.024 36.38 42.148 47.137 68.073l0.479 1.303c9.836 23.512 15.549 50.833 15.549 79.488s-5.714 55.976-16.064 80.885l0.514-1.397c-11.2 28.030-27.354 51.909-47.574 71.639l-0.042 0.041z" />
<glyph unicode="&#xe923;" glyph-name="plan-premium" d="M878.336 678.4c-4.676 2.602-10.257 4.134-16.195 4.134-8.049 0-15.44-2.814-21.244-7.512l0.064 0.050-157.44-124.672-144.64 186.368-3.328 2.816-2.56 3.072-2.304 1.28c-1.78 1.044-3.886 2.076-6.070 2.955l-0.33 0.117-5.888 1.792c-1.982 0.437-4.259 0.687-6.595 0.687-4.458 0-8.702-0.911-12.558-2.558l0.209 0.079-5.888-3.072-2.56-1.28-2.56-3.072c-1.161-0.828-2.169-1.756-3.053-2.793l-0.019-0.023-144.896-186.368-157.44 125.952c-5.733 4.625-13.107 7.425-21.135 7.425-10.699 0-20.237-4.973-26.429-12.733l-0.052-0.068c-4.674-5.623-7.51-12.918-7.51-20.876 0-1.667 0.124-3.305 0.365-4.905l-0.022 0.18 38.144-377.856c1.219-10.97 7.53-20.245 16.482-25.514l0.158-0.086c71.168-59.392 193.28-95.232 328.96-95.232s257.536 35.84 328.96 96.512c9.226 5.23 15.596 14.572 16.63 25.468l0.010 0.132 38.4 377.856c0.095 0.959 0.15 2.073 0.15 3.2 0 12.897-7.118 24.132-17.639 29.991l-0.175 0.089zM232.448 290.048l-27.648 283.392 121.344-96.256c5.754-4.517 13.101-7.244 21.084-7.244 10.808 0 20.449 4.998 26.737 12.81l0.052 0.066 137.984 177.92 139.008-177.664c6.24-8.012 15.888-13.116 26.729-13.116 7.917 0 15.198 2.723 20.958 7.282l-0.071-0.054 120.576 96.256-27.648-283.392c-59.648-46.848-164.864-75.52-279.552-75.52s-219.904 28.672-279.552 75.52z" />
<glyph unicode="&#xe924;" glyph-name="credit-card" d="M763.392 417.536h-502.784c-18.804 0-34.048 15.244-34.048 34.048s15.244 34.048 34.048 34.048v0h502.784c18.804 0 34.048-15.244 34.048-34.048s-15.244-34.048-34.048-34.048v0zM890.624 678.4c-18.929 19.596-45.439 31.763-74.792 31.763-0.706 0-1.411-0.007-2.113-0.021l0.105 0.002h-603.904c-0.598 0.012-1.302 0.019-2.008 0.019-29.352 0-55.863-12.167-74.763-31.733l-0.029-0.030c-19.002-19.302-30.734-45.807-30.734-75.053 0-0.614 0.005-1.227 0.015-1.839l-0.001 0.092v-409.6c-0.007-0.461-0.011-1.006-0.011-1.551 0-29.4 11.942-56.011 31.241-75.246l0.003-0.003c18.886-19.298 45.198-31.262 74.305-31.262 0.877 0 1.752 0.011 2.625 0.032l-0.129-0.003h603.648c0.743-0.019 1.618-0.030 2.495-0.030 29.107 0 55.419 11.964 74.287 31.243l0.018 0.019c19 19.187 30.74 45.595 30.74 74.744 0 0.723-0.007 1.444-0.022 2.163l0.002-0.108v409.6c0.007 0.443 0.010 0.967 0.010 1.491 0 29.372-11.834 55.981-30.994 75.317l0.008-0.008zM841.216 192c0.065-0.685 0.102-1.481 0.102-2.286 0-12.911-9.557-23.589-21.982-25.346l-0.136-0.016h-609.28c-0.483-0.032-1.046-0.051-1.614-0.051-13.436 0-24.454 10.35-25.516 23.512l-0.006 0.091c-0.061 0.614-0.095 1.327-0.095 2.048s0.035 1.434 0.102 2.137l-0.007-0.089v409.6c-0.024 0.415-0.038 0.901-0.038 1.39 0 7.051 2.851 13.437 7.463 18.066l-0.001-0.001c4.474 3.918 10.371 6.307 16.827 6.307 1.017 0 2.019-0.059 3.005-0.174l-0.12 0.011h604.16c0.488 0.033 1.058 0.052 1.632 0.052 7.058 0 13.449-2.857 18.080-7.477v0c4.611-4.629 7.462-11.014 7.462-18.066 0-0.489-0.014-0.975-0.041-1.457l0.003 0.067z" />
<glyph unicode="&#xe925;" glyph-name="save" d="M828.672 588.544c-2.236 4.302-4.877 8.006-7.961 11.29l0.025-0.026-156.928 157.696c-3.481 2.959-7.439 5.524-11.706 7.542l-0.326 0.138c-4.018 1.622-8.677 2.564-13.556 2.564-0.184 0-0.368-0.001-0.552-0.004h-345.316c-0.476 0.008-1.036 0.013-1.599 0.013-27.225 0-51.892-10.953-69.835-28.694l0.009 0.009c-17.882-17.571-28.964-42.012-28.964-69.041 0-0.928 0.013-1.853 0.039-2.775l-0.003 0.136v-438.784c-0.011-0.543-0.017-1.183-0.017-1.824 0-27.121 11.069-51.657 28.937-69.335l0.008-0.008c17.491-17.878 41.864-28.963 68.825-28.963 0.914 0 1.825 0.013 2.733 0.038l-0.134-0.003h439.296c0.383-0.005 0.835-0.008 1.288-0.008 54.269 0 98.346 43.634 99.063 97.733l0.001 0.068v346.88c0.015 0.365 0.024 0.793 0.024 1.223 0 5.155-1.239 10.020-3.434 14.315l0.083-0.178zM631.296 203.264h-238.592v175.616h238.592zM696.064 443.904c-6.476 6.673-15.528 10.814-25.547 10.814-0.739 0-1.473-0.023-2.201-0.067l0.1 0.005h-312.832c-0.628 0.040-1.362 0.062-2.101 0.062-10.020 0-19.072-4.141-25.539-10.805l-0.009-0.009c-6.362-6.54-10.285-15.48-10.285-25.337 0-0.633 0.016-1.262 0.048-1.887l-0.004 0.088v-213.248h-25.6c-0.487-0.037-1.054-0.059-1.626-0.059-6.404 0-12.184 2.672-16.286 6.962l-0.008 0.008c-4.292 4.567-6.928 10.732-6.928 17.514 0 0.323 0.006 0.644 0.018 0.964l-0.001-0.046v438.528c-0.025 0.426-0.040 0.924-0.040 1.426 0 6.661 2.544 12.728 6.713 17.282l-0.017-0.019c4.53 4.134 10.584 6.665 17.229 6.665 0.243 0 0.485-0.003 0.727-0.010l-0.036 0.001h25.6v-119.552c-0.011-0.345-0.018-0.751-0.018-1.159 0-9.974 3.907-19.035 10.273-25.737l-0.015 0.016c6.729-6.22 15.761-10.035 25.685-10.035 0.691 0 1.377 0.018 2.058 0.055l-0.095-0.004h250.624c0.411-0.016 0.895-0.025 1.38-0.025 9.942 0 18.995 3.803 25.784 10.034l-0.028-0.025c6.654 6.668 10.768 15.873 10.768 26.038 0 0.386-0.006 0.771-0.018 1.154l0.001-0.056c0.030 0.549 0.047 1.192 0.047 1.839 0 19.935-16.161 36.096-36.096 36.096-0.647 0-1.29-0.017-1.928-0.051l0.089 0.004h-213.248v81.408h230.4l133.632-134.656v-329.472c0.017-0.353 0.027-0.767 0.027-1.183 0-6.654-2.539-12.716-6.701-17.268l0.018 0.020c-4.565-4.284-10.725-6.915-17.5-6.915-0.148 0-0.295 0.001-0.442 0.004h-25.578v213.76c0.011 0.345 0.018 0.751 0.018 1.159 0 9.974-3.907 19.035-10.273 25.737l0.015-0.016z" />
<glyph unicode="&#xe926;" glyph-name="live" d="M846.336 529.408c-2.692 6.285-6.902 11.482-12.181 15.287l-0.107 0.073c-4.653 3.223-10.418 5.148-16.632 5.148-0.453 0-0.904-0.010-1.352-0.030l0.064 0.002h-267.008l30.208 232.96c0.641 2.133 1.011 4.585 1.011 7.122 0 5.153-1.523 9.951-4.143 13.968l0.060-0.098c-3.418 6.475-9.351 11.235-16.463 13.019l-0.177 0.037c-4.274 2.097-9.301 3.324-14.615 3.324-2.531 0-4.997-0.278-7.37-0.806l0.225 0.042c-7.834-1.79-14.369-6.405-18.619-12.692l-0.069-0.108-338.688-405.76c-3.451-4.925-5.89-10.81-6.882-17.175l-0.030-0.233c-0.227-1.372-0.356-2.953-0.356-4.564 0-5.594 1.56-10.824 4.27-15.278l-0.074 0.13c2.988-5.14 7.148-9.3 12.13-12.203l0.158-0.085c4.783-2.753 10.518-4.377 16.632-4.377 0.453 0 0.904 0.009 1.352 0.027l-0.064-0.002h267.008l-30.208-233.984c-0.531-1.946-0.835-4.181-0.835-6.486 0-5.206 1.554-10.048 4.223-14.090l-0.059 0.096c3.469-6.372 9.391-11.037 16.465-12.764l0.175-0.036c1.439-2.172 3.873-3.584 6.636-3.584 0.007 0 0.014 0 0.021 0h6.655c0.158-0.003 0.344-0.004 0.53-0.004 5.301 0 10.314 1.23 14.771 3.42l-0.197-0.088c5.007 2.227 9.1 5.745 11.968 10.135l0.064 0.105 338.432 405.504c3.521 4.752 6.042 10.458 7.133 16.656l0.035 0.24c0.241 1.209 0.379 2.598 0.379 4.020 0 4.967-1.684 9.54-4.512 13.18l0.036-0.049zM525.568 222.208l20.48 155.392c-0.037 5.312-0.876 10.415-2.404 15.211l0.1-0.363c-1.587 4.794-3.233 8.773-5.121 12.611l0.257-0.579c-3.052 3.63-7.040 6.379-11.595 7.884l-0.181 0.052c-4.515 1.453-9.71 2.295-15.1 2.304h-232.964l216.32 260.864-17.408-156.16c0-0.021 0-0.046 0-0.071 0-5.102 0.843-10.008 2.398-14.584l-0.094 0.319c1.655-5.21 3.304-9.449 5.176-13.566l-0.312 0.766c3.153-3.228 7.003-5.76 11.307-7.355l0.213-0.069c3.594-1.754 7.817-2.79 12.279-2.816h233.481z" />
<glyph unicode="&#xe927;" glyph-name="millsta" d="M696.832 96c-29.482 2.672-53.858 21.989-63.828 48.378l-0.172 0.518c-0.554 1.283-1.154 2.376-1.841 3.406l0.049-0.078-1.792-3.584c-8.96-18.176-23.808-48.64-58.88-48.64-24.017 0.506-44.922 13.371-56.663 32.472l-0.169 0.296-4.096 5.376-3.84-5.376c-11.696-19.155-32.172-31.946-55.692-32.765l-0.116-0.003c-0.313-0.005-0.683-0.008-1.053-0.008-20.425 0-38.855 8.543-51.911 22.25l-0.028 0.029c-5.888 5.376-5.888 5.376-8.448 5.376s-2.56 0-8.192-5.376c-12.887-13.608-31.035-22.122-51.172-22.272h-0.028c-51.2 0-87.296 43.52-87.296 105.728v39.168c-49.433 37.786-81.002 96.78-81.002 163.147 0 2.314 0.038 4.619 0.115 6.915l-0.009-0.334c3.285 71.684 28.974 136.792 70.168 189.122l-0.536-0.706v61.696c0 45.312 0 88.064 25.6 115.968 15.655 14.516 36.69 23.422 59.805 23.422 1.656 0 3.301-0.046 4.934-0.136l-0.227 0.010c70.416-2.971 133.061-33.949 177.509-82.006l0.155-0.17c8.704 0 17.664 0 25.6 0 44.694 48.094 107.285 79.028 177.112 82.156l0.552 0.020c1.982 0.159 4.291 0.249 6.622 0.249 23.179 0 44.267-8.955 59.992-23.594l-0.053 0.049c26.88-27.904 25.6-70.656 25.6-115.968v-61.696c40.432-51.197 66.080-115.735 69.601-186.103l0.031-0.777v-1.536c0.067-1.961 0.106-4.267 0.106-6.581 0-66.367-31.568-125.361-80.508-162.785l-0.494-0.362v-38.912c0-63.488-34.816-105.984-86.528-105.984zM388.608 187.648c20.189-0.020 38.378-8.567 51.163-22.232l0.037-0.040c6.144-5.376 6.144-5.376 8.704-5.376 1.933 2.147 3.783 4.484 5.48 6.936l0.152 0.232c11.636 18.987 31.872 31.718 55.15 32.763l0.146 0.005c23.571-1.175 43.856-14.211 55.124-33.222l0.172-0.314 2.56-3.328 4.352 8.96c8.96 18.176 24.064 48.64 58.88 48.64 27.116-2.923 49.396-20.92 58.466-45.339l0.158-0.485c2.922-5.972 6.074-11.091 9.654-15.87l-0.182 0.254c19.968 2.048 20.48 37.632 20.48 41.728v79.104l18.688 8.448c36.352 16.896 61.952 66.56 62.208 121.344-3.287 60.313-26.149 114.725-62.281 157.584l0.329-0.4-7.68 8.96v84.992c0 28.928 0 61.696-8.704 70.4-4.638 2.96-10.293 4.717-16.357 4.717-0.91 0-1.812-0.040-2.702-0.117l0.116 0.008c-42.24 0-111.616-30.208-134.4-67.584l-9.984-16.128h-19.2c-8.109 0.489-17.59 0.768-27.136 0.768s-19.027-0.279-28.435-0.829l1.299 0.061h-19.2l-9.984 16.128c-22.784 37.376-92.16 67.584-134.4 67.584-0.747 0.062-1.618 0.098-2.496 0.098-6.179 0-11.949-1.751-16.84-4.784l0.137 0.079c-8.704-8.704-8.704-41.472-8.448-70.4v-84.992l-7.68-8.96c-36.015-42.621-58.922-97.35-61.927-157.323l-0.025-0.629c0-53.504 25.6-103.68 62.208-120.32l18.688-8.704v-78.080c0-4.352 0-41.984 22.528-41.984 3.328 0 3.584 0 9.472 5.632 12.949 13.515 31.058 21.997 51.149 22.271l0.051 0.001z" />
</font>
</defs>
</svg>
